вход на сайт

Имя пользователя :
Пароль :

Восстановление пароля Регистрация
Журнал Лиги Чемпионов 2013-14 / НТВ+ [31.08.2013, 720p, x264, RU, HDTVRip]
Рейтинг:
(голосов: 1)



[img]{THEME}/images/logopost.png[/img]



Журнал Лиги Чемпионов 2013-14 от 31/08/2013

Вид спорта:: футбол
Год выпуска: 31/08/2013
Язык комментариев: Русский
Комментарий: Владимир Попов, Эльвин Керимов
Участники: Футболисты Тренера

Описание: Журнал Лиги Чемпионов 2013-14 от 31/08/2013

Канал:

Качество:HDTVRip
Продолжительность: 00:23:27

Формат:MKV
Видео кодек:H.264
Аудио кодек:AС3
Свойства видео:1280x720 (16/9), 25 fps,H.264~3500 kbps avg.
Свойства аудио: 48 kHz, AС3, 2 ch, ~128.00 kbps avg
"Media info" ▼D:ADMINDownloadsUCL 13-14 Journal - 2013.08.31 720p.mkv
General
Unique ID : 228226008130956695711927466859445868073 (0xABB2BAF5E81908C99C5B16103153D629)
Complete name : D:ADMINDownloadsUCL 13-14 Journal - 2013.08.31 [rgfootball.net] 720p.mkv
Format : Matroska
Format version : Version 2
File size : 607 MiB
Duration : 23mn 27s
Overall bit rate : 3 620 Kbps
Encoded date : UTC 2013-08-31 11:03:36
Writing application : mkvmerge v5.4.0 (Piper) built on Mar 10 2012 13:34:39
Writing library : libebml v1.2.3 + libmatroska v1.3.0
Video #1
ID : 1
Format : AVC
Format/Info : Advanced Video Codec
Format profile : [email protected]
Format settings, CABAC : Yes
Format settings, ReFrames : 4 frames
Codec ID : V_MPEG4/ISO/AVC
Duration : 23mn 27s
Bit rate : 3 420 Kbps
Width : 1 280 pixels
Height : 720 pixels
Display aspect ratio : 16:9
Frame rate mode : Constant
Frame rate : 25.000 fps
Color space : YUV
Chroma subsampling : 4:2:0
Bit depth : 8 bits
Scan type : Progressive
Bits/(Pixel*Frame) : 0.148
Stream size : 574 MiB (94%)
Default : Yes
Forced : No
Color primaries : BT.709
Transfer characteristics : BT.709
Matrix coefficients : BT.709
Audio #2
ID : 2
Format : AC-3
Format/Info : Audio Coding 3
Mode extension : CM (complete main)
Format settings, Endianness : Big
Codec ID : A_AC3
Duration : 23mn 27s
Bit rate mode : Constant
Bit rate : 128 Kbps
Channel(s) : 2 channels
Channel positions : Front: L R
Sampling rate : 48.0 KHz
Bit depth : 16 bits
Compression mode : Lossy
Stream size : 21.5 MiB (4%)
&n
e2f17015320433ad5116d6438f67d6471887b688Журнал Лиги Чемпионов 2013-14 / НТВ+ [31.08.2013, 720p, x264, RU, HDTVRip] Журнал Лиги Чемпионов 2013-14 / НТВ+ [31.08.2013, 720p, x264, RU, HDTVRip] " />

Аплоадер: Админ, дата: 31-08-2013, 18:13, торрент скачан: 359 раз

Понравилась раздача? Посмотрите эти:
  • Журнал Лиги Чемпионов 2013-14 / НТВ+ [Футбол, 14.12.2013, 720p, x264, RU, H ...
  • Лига Чемпионов 2013-14 / Жеребьевка 1/8 финала / НТВ+ [Футбол, 16.12.2013, ...
  • Журнал Лиги Чемпионов 2013-14 / НТВ+ [Футбол, 23.11.2013, 720p, x264, RU, ...
  • Лига Чемпионов 2013-14 / 2-й тур / 1-й день / Все голы / НТВ+ [Футбол, 01.1 ...
  • Лига Чемпионов 2013-14 / 2-й тур / 2-й день / Все голы / НТВ+ [Футбол, 02.1 ...
  • Журнал Лиги Чемпионов 2013-14 / НТВ+ [Футбол, 05.10.2013, 720p, x264, RU, H ...
  • Журнал Лиги Чемпионов 2013-14 / НТВ+ [Футбол, 12.10.2013, 720p, x264, RU, H ...
  • Журнал Лиги Чемпионов 2013-14 / НТВ+ [Футбол, 19.10.2013, 720p, x264, RU, H ...
  • Журнал Лиги Чемпионов 2013-14 / НТВ+ [Футбол, 14.09.2013, 720p, x264, RU, H ...
  • Чемпионат Англии 2013-14 / 3-й тур / Разогрев / НТВ+ [31.08.2013, 720p, x2 ...
  • Журнал Лиги Чемпионов 2013-14 / НТВ+ [Футбол, 24.08.2013, 720p, x264, RU, H ...
  • Лига Чемпионов 2013-14 / Раунд плей-офф / Обзор матчей за 27.08.2013 / НТВ+ ...
  • Лига Чемпионов 2013-14 / Раунд плей-офф / Первый Матч / ПСВ (Нидерланды) - ...
  • Журнал Лиги Чемпионов 2012-13 / НТВ+ [футбол,28.05.2013,HDTVRip,720p,MKV/H. ...
  • Журнал Лиги Чемпионов 2012-13 / НТВ+ [Футбол, 04.05.2013, 720p, x264, RU, H ...
  • Журнал Лиги Чемпионов 2012-13 / НТВ+ [футбол,11.05.2013,HDTVRip,720p,MKV/H. ...
  • Журнал Лиги Чемпионов 2012-13 / НТВ+ [Футбол, 18.05.2013, SD, XviD, RU, DVB ...
  • Журнал Лиги Чемпионов 2012-13 / НТВ+ [Футбол, 18.05.2013, 720p, x264, RU, H ...
  • Журнал Лиги Чемпионов 2012-13 / НТВ+ [Футбол, 27.04.2013, 720p, x264, RU, H ...
  • Журнал Лиги Чемпионов 2012-13 / НТВ+ [30.03.2013, футбол, HDTVRip]
  • Журнал Лиги Чемпионов 2012-13 / НТВ+ [Футбол, 30.03.2012, 400p, XviD, RU, H ...
  • Журнал Лиги Чемпионов 2012-13 / НТВ+ [футбол,23.02.2013,HDTVRip,1080i,TS/H. ...
  • Журнал Лиги Чемпионов 2012-13 / НТВ+ [футбол,16.02.2013,HDTVRip,720p,MKV/H. ...
  • Журнал Лиги Чемпионов 2012-13 / НТВ+ [10.11.2012, футбол, HDTV]
  • Журнал Лиги Чемпионов 2012-13 / НТВ+ [17.11.2012, футбол, HDTV]
  • Информация
    Посетители, находящиеся в группе Гости, не могут оставлять комментарии к данной публикации.