вход на сайт

Имя пользователя :
Пароль :

Восстановление пароля Регистрация
Чемпионат Мира 2014 / Отборочный турнир / Группа I / 10-й тур / Беларусь - Франция / Спорт 1 HD [10.09.2013, Футбол, H.264, 1080i, RU, HDTV]
Рейтинг:
(голосов: 1)



[img]{THEME}/images/logopost.png[/img]








Вид спорта: Футбол
Год выпуска : 10.09.2013
Язык комментариев:Русский (Алексей Осин)
Участники: Футболисты
Состав команд:▼

Описание: Группа I. 10-й тур 10 сентября 2013 года, вторник. 23:00 мск
Гомель (Белоруссия). Стадион Центральный.
Главный судья: Даниэле Орсато (Скио, Италия)

Канал:



Качество: HDTV 1080i
Продолжительность: 00:51:10 + 00:55:49

Формат: TS
Видео кодек: H.264
Аудио кодек: Mp2
Видео: 1020x1080 (16:9) 25 fps H264 12000 kbps avg 0.235 bit/pixel
Аудио: 48 kHz MPEG Audio 2 ch 192.00 kbps avg
"Media info" ▼D:ADMINDownloadsWorldCup2014.Qualifiers.Belarus-France.HDTV.1080i1 half.ts
General #1
ID : 1 (0x1)
Complete name : D:ADMINDownloadsWorldCup2014.Qualifiers.Belarus-France.HDTV.1080i1 half.ts
Format : MPEG-TS
File size : 4.66 GiB
Duration : 51mn 10s
Overall bit rate mode : Variable
Overall bit rate : 13.0 Mbps
Video #303
ID : 303 (0x12F)
Menu ID : 1 (0x1)
Format : AVC
Format/Info : Advanced Video Codec
Format profile : [email protected]
Format settings, CABAC : Yes
Format settings, ReFrames : 3 frames
Codec ID : 27
Duration : 51mn 10s
Bit rate : 12.2 Mbps
Width : 1 920 pixels
Height : 1 080 pixels
Display aspect ratio : 16:9
Frame rate : 25.000 fps
Standard : Component
Color space : YUV
Chroma subsampling : 4:2:0
Bit depth : 8 bits
Scan type : Interlaced
Scan order : Top Field First
Bits/(Pixel*Frame) : 0.235
Stream size : 4.36 GiB (94%)
Color primaries : BT.709
Transfer characteristics : BT.709
Matrix coefficients : BT.709
Audio #403
ID : 403 (0x193)
Menu ID : 1 (0x1)
Format : MPEG Audio
Format version : Version 1
Format profile : Layer 2
Codec ID : 3
Duration : 51mn 10s
Bit rate mode : Constant
Bit rate : 192 Kbps
Channel(s) : 2 channels
Sampling rate : 48.0 KHz
Compression mode : Lossy
Stream size : 70.3 MiB (1%)
Language : Russian

Наши рипы / Набор в РГ / Стол заказов РГ / Стол заказов по РИПам



103cd21b27691aafef2a7c29eea9bc94b4aa5baeЧемпионат Мира 2014 / Отборочный турнир / Группа I / 10-й тур / Беларусь - Франция / Спорт 1 HD [10.09.2013, Футбол, H.264, 1080i, RU, HDTV] Чемпионат Мира 2014 / Отборочный турнир / Группа I / 10-й тур / Беларусь - Франция / Спорт 1 HD [10.09.2013, Футбол, H.264, 1080i, RU, HDTV] " />

Аплоадер: Админ, дата: 11-09-2013, 05:38, торрент скачан: 359 раз

Понравилась раздача? Посмотрите эти:
  • Чемпионат Англии 2013-2014 / 17-й тур / Арсенал - Челси / НТВ+ Футбол HD [ф ...
  • Чемпионат Италии 2013-2014 / 20-й тур / Обзор тура / НТВ+ [Футбол, 20.01.20 ...
  • Чемпионат Англии 2013-2014 / 6-й тур / Суонси Сити (Суонси) - Арсенал (Лонд ...
  • Чемпионат Мира 2014 / Отборочный турнир / Группа С / Германия - Ирландия / ...
  • Чемпионат Мира 2014 / Отборочный турнир / Группа F / Азербайджан - Россия / ...
  • Чемпионат Мира 2014 / Отборочный турнир / Группа B / 10-й тур / Италия - Ар ...
  • Лига Чемпионов 2013-2014 / Группа F / 3-й тур / Арсенал (Лондон, Англия) - ...
  • Лига Чемпионов 2013-2014 / Группа H / 3-й тур / Милан (Милан, Италия) - Бар ...
  • Лига Чемпионов 2013-2014 / Группа E / 3-й тур / Шальке-04 (Гельзенкирхен, Г ...
  • Лига Чемпионов 2013-2014 / Группа В / 3-й тур / Реал Мадрид (Мадрид, Испани ...
  • Чемпионат России 2013-2014 / 8-й тур / ЦСКА (Москва) - Ростов (Ростов-на-До ...
  • Чемпионат Мира 2014 / Отборочный турнир / Группа Н / Украина - Англия / ITV ...
  • Чемпионат Мира 2014 / Отборочный турнир / Группа F / Россия - Израиль / Спо ...
  • Чемпионат Мира 2014 / Отборочный турнир / Группа F / Россия - Израиль / Спо ...
  • Чемпионат Мира 2014 / Отборочный турнир / Группа F / Россия - Израиль / Спо ...
  • Чемпионат Мира 2014 / Отборочный турнир / Группа С / Германия - Австрия / С ...
  • Чемпионат Мира 2014 / Отборочный турнир / Группа F / Россия - Люксембург / ...
  • Чемпионат мира - 2014 / Отборочный турнир / Группа В / Чехия - Италия / Спо ...
  • Чемпионат Мира 2014 / Отборочный турнир / Европа / Группа F / Северная Ирла ...
  • Чемпионат Англии 2012-2013 / 36-й тур / Манчестер Юнайтед - Челси / Спорт 1 ...
  • Чемпионат Испании 2012-13 / 34-й тур / Реал Мадрид - Вальядолид / НТВ+ [04. ...
  • Чемпионат Мира 2014 | Отборочный турнир | Европа | Группа H | Англия - Укра ...
  • Чемпионат Мира 2014 | Отборочный турнир | Европа | Группа F | Португалия - ...
  • Чемпионат Европы. Группа D. Швеция - Англия / EURO-2012. Group D. Sweden - ...
  • Чемпионат Мира 2014 | Отборочный турнир | Европа | Группа F | Россия – Севе ...
  • Информация
    Посетители, находящиеся в группе Гости, не могут оставлять комментарии к данной публикации.