вход на сайт

Имя пользователя :
Пароль :

Восстановление пароля Регистрация
Товарищеский матч / Звёзды Малайзии - Манчестер Сити / ТК Футбол [Футбол, 29.07.2012, TVRip, UA]
Рейтинг:
(голосов: 1)



[img]{THEME}/images/logopost.png[/img]



Товарищеский матч 2012

Звёзды Малайзии - Манчестер Сити

Вид спорта: Футбол
Год выпуска: 29.07.2012
Язык комментариев: Украинский
Участники: Звёзды Малайзии - Манчестер Сити
Описание: Товарищеский матч
Качество: SATRip
Продолжительность ▼59mn 18s + 54mn 38s
Формат: AVI
Видео кодек: MPEG4, XviD
Аудио кодек: MP3
Свойства видео: 704x400 (16/9), 25.000 fps, 1 799 Kbps
Свойства аудио: 48.0 KHz, 2 ch, 128 Kbps
Тех. описание ▼Format : AVI
Format/Info : Audio Video Interleave
File size : 781 MiB
Duration : 56mn 28s
Overall bit rate : 1 934 Kbps
Writing application : TMPGEnc Video Mastering Works 5 Version. 5.0.6.38
Writing library : TMPGEnc Video Mastering Works 5 Version. 5.0.6.38

Video
ID : 0
Format : MPEG-4 Visual
Format profile : Advanced [email protected]
Format settings, BVOP : 2
Format settings, QPel : No
Format settings, GMC : No warppoints
Format settings, Matrix : Default (H.263)
Muxing mode : Packed bitstream
Codec ID : XVID
Codec ID/Hint : XviD
Duration : 56mn 28s
Bit rate : 1 799 Kbps
Width : 704 pixels
Height : 400 pixels
Display aspect ratio : 16:9
Frame rate : 25.000 fps
Color space : YUV
Chroma subsampling : 4:2:0
Bit depth : 8 bits
Scan type : Progressive
Compression mode : Lossy
Bits/(Pixel*Frame) : 0.256
Stream size : 727 MiB (93%)
Writing library : XviD 64

Audio
ID : 1
Format : MPEG Audio
Format version : Version 1
Format profile : Layer 3
Mode : Joint stereo
Mode extension : MS Stereo
Codec ID : 55
Codec ID/Hint : MP3
Duration : 56mn 28s
Bit rate mode : Constant
Bit rate : 128 Kbps
Channel(s) : 2 channels
Sampling rate : 48.0 KHz
Compression mode : Lossy
Stream size : 51.7 MiB (7%)
Alignment : Split accross interleaves
Interleave, duration : 250 ms (6.25 video frames)
Interleave, preload duration : 210 ms


Стол заказов POWER | Отзывы | Вступление в POWER
Мои раздачи


decb5526565b0b7b7e3dfd5f496f64b66bbc466aТоварищеский матч / Звёзды Малайзии - Манчестер Сити / ТК Футбол [Футбол, 29.07.2012, TVRip, UA] Товарищеский матч / Звёзды Малайзии - Манчестер Сити / ТК Футбол [Футбол, 29.07.2012, TVRip, UA] " />

Аплоадер: Админ, дата: 31-07-2012, 00:28, торрент скачан: 359 раз

Понравилась раздача? Посмотрите эти:
  • Чемпионат Англии 2013-2014 / 16-й тур / Манчестер Сити – Арсенал / НТВ+ Фут ...
  • Чемпионат Англии 2013-2014 / 18-й тур / Манчестер Сити - Ливерпуль / НТВ+ Ф ...
  • Товарищеский матч 2013 / Англия - Германия / Спорт 1 [футбол, 19.11.2013, H ...
  • Чемпионат Англии 2013-2014 / 4-й тур / Сток Сити - Манчестер Сити / НТВ+ [ф ...
  • Товарищеский матч 2013 / Звезды Сингха - Манчестер Юнайтед / beIN Sport 1 H ...
  • Товарищеский матч 2013 / Арсенал - Манчестер Сити [Футбол, 10.08.2013, DVB ...
  • Товарищеский матч 2013 / Манчестер Сити (Англия) - Челси (Англия) / JSC [Фу ...
  • Товарищеский матч / Легенды Реал Мадрида - Легенды Манчестер Юнайтед / ТРК ...
  • Товарищеский матч 2012 / Торонто (Канада) - Ливерпуль (Англия) / TV [Футбол ...
  • Товарищеский матч 2012 / Швеция - Англия / ITV1 HD [Футбол, 14.11.2012, HD, ...
  • Чемпионат Англии 2012-13 / 16-й тур / Манчестер Сити — Манчестер Юнайтед / ...
  • Чемпионат Англии 2012-2013 / 22-й тур / Манчестер Юнайтед (Манчестер) - Лив ...
  • Чемпионат Англии 2012-13 / 16 тур / Манчестер Сити - Манчестер Юнайтед / С ...
  • Чемпионат Англии 2011-12 / 32 тур / Арсенал - Манчестер Сити / Спорт 1 [Фут ...
  • Чемпионат Англии 2011-12 / 35 тур / Манчестер Юнайтед - Эвертон / Спорт 1 [ ...
  • Чемпионат Англии 2011-12 / 37-й тур / Манчестер Юнайтед - Суонси Сити / Спо ...
  • Товарищеский матч / Легенды Реал Мадрида - Легенды Манчестер Юнайтед / ТРК ...
  • Товарищеский матч 2012 / Аргентина - Бразилия / Россия 2 [Футбол, 09.06.201 ...
  • Товарищеский матч 2012 / Звезды мирового футбола в Майами / "Друзья Месси" ...
  • Товарищеский матч 2012 / АмаЗулу (ЮАР) - Манчестер Юнайтед (Англия) / MU TV ...
  • Товарищеский матч 2012 / Аякс Кейптаун (ЮАР) - Манчестер Юнайтед (Англия) / ...
  • Товарищеский матч 2012 / Манчестер Юнайтед - Барселона / Футбол [Футбол, 08 ...
  • Товарищеский матч 2012 / Ганновер (Германия) - Манчестер Юнайтед (Англия) / ...
  • Суперкубок Англии 2012 | Community Shield 2012 | Челси — Манчестер Сити | Ф ...
  • Чемпионат Англии 2012-13 | 1-й тур | Манчестер Сити - Саутгемптон | Спорт 1 ...
  • Информация
    Посетители, находящиеся в группе Гости, не могут оставлять комментарии к данной публикации.