вход на сайт

Имя пользователя :
Пароль :

Восстановление пароля Регистрация
Чемпионат России 2012-2013 / 1-й тур / Алания (Владикавказ) - Спартак (Москва) / НТВ+ [Футбол, 21.07.2012, SATRip, RU]
Рейтинг:
(голосов: 1)



[img]{THEME}/images/logopost.png[/img]



Чемпионат России 2012-13 / 1-й тур


Вид спорта: Футбол
Год выпуска: 21.07.2012
Язык комментариев: Русский (Александр Шмурнов, Павел Занозин)
Участники: Алания (Владикавказ) - Спартак (Москва)
Описание: Чемпионат России 2012-13. 1-й тур
Владикавказ (Россия). Стадион Спартак.
Главный судья: Виталий Мешков (Дмитров, Россия)
Составы команд ▼Результат матча ▼
Качество: SATRip
Продолжительность ▼01:12:32 + 01:01:07
Формат: AVI
Видео кодек: XviD
Аудио кодек: MP3
Свойства видео: 704 х 400 (PAL 16:9), 25.00 fps, ~1800 kbps, ~0.256 bit/pixel
Свойства аудио: 48000 Hz, МР3, 16 bit, 2 ch, 128 kbps
Тех. описание ▼Format : AVI
Format/Info : Audio Video Interleave
File size : 1 007 MiB
Duration : 1h 12mn
Overall bit rate : 1 941 Kbps
Writing application : GOM ENCODER (GAviWriter 1.0)

Video
ID : 0
Format : MPEG-4 Visual
Format profile : [email protected]
Format settings, BVOP : No
Format settings, QPel : No
Format settings, GMC : No warppoints
Format settings, Matrix : Default (H.263)
Codec ID : XVID
Codec ID/Hint : XviD
Duration : 1h 12mn
Bit rate : 1 800 Kbps
Width : 704 pixels
Height : 400 pixels
Display aspect ratio : 16:9
Frame rate : 25.000 fps
Color space : YUV
Chroma subsampling : 4:2:0
Bit depth : 8 bits
Scan type : Progressive
Compression mode : Lossy
Bits/(Pixel*Frame) : 0.256
Stream size : 934 MiB (93%)
Writing library : Lavc52.110.0

Audio
ID : 1
Format : MPEG Audio
Format version : Version 1
Format profile : Layer 3
Mode : Joint stereo
Mode extension : MS Stereo
Codec ID : 55
Codec ID/Hint : MP3
Duration : 1h 12mn
Bit rate mode : Constant
Bit rate : 128 Kbps
Channel(s) : 2 channels
Sampling rate : 48.0 KHz
Compression mode : Lossy
Stream size : 66.4 MiB (7%)
Alignment : Aligned on interleaves
Interleave, duration : 24 ms (0.60 video frame)
Interleave, preload duration : 24 ms

Стол заказов POWER | Отзывы | Вступление в POWER
Мои раздачи


dcd44e8c5a981c8a9b38ce592ccdb2bcc4fe1a22Чемпионат России 2012-2013 / 1-й тур / Алания (Владикавказ) - Спартак (Москва) / НТВ+ [Футбол, 21.07.2012, SATRip, RU] Чемпионат России 2012-2013 / 1-й тур / Алания (Владикавказ) - Спартак (Москва) / НТВ+ [Футбол, 21.07.2012, SATRip, RU] " />

Аплоадер: Админ, дата: 22-07-2012, 00:43, торрент скачан: 359 раз

Понравилась раздача? Посмотрите эти:
  • Чемпионат России 2013-2014 / 17-й тур / ЦСКА (Москва) - Спартак (Москва) / ...
  • Чемпионат России 2013-2014 / 17-й тур / ЦСКА (Москва) - Спартак (Москва) / ...
  • Чемпионат России 2013-2014 / 15-й тур / Спартак (Москва) - Локомотив (Москв ...
  • Чемпионат России 2013-2014 / 16-й тур / Спартак (Москва) - Зенит (Санкт-Пет ...
  • Чемпионат России 2013-2014 / 9-й тур / Спартак (Москва) - ЦСКА (Москва) / Н ...
  • Чемпионат России 2013-2014 / 9-й тур / Спартак (Москва) - ЦСКА (Москва) / Н ...
  • Чемпионат России 2013-2014 / 11-й тур / Зенит (Санкт-Петербург) - Спартак ( ...
  • Чемпионат России 2013-2014 / 8-й тур / Волга (Нижний Новгород) - Спартак (М ...
  • Чемпионат России 2013-2014 / 3-й тур / Динамо (Москва) - Спартак (Москва) / ...
  • Чемпионат России 2013-2014 / 5-й тур / ЦСКА (Москва) - Кубань (Краснодар) / ...
  • Чемпионат России 2012-2013 / 25-й тур / ЦСКА (Москва) - Спартак (Москва) / ...
  • Чемпионат России 2012-13 / 25-й тур / ЦСКА — Спартак / НТВ+ [Футбол, 21.04. ...
  • Чемпионат России 2012-13 / 22-й тур / Спартак — Кубань / НТВ+ [31.03.2013, ...
  • Чемпионат России 2012-13 / 20-й тур / Спартак - Терек / НТВ+ [10.03.2013, ф ...
  • Молодежный чемпионат мира 2012 (U-20). Четвертьфинал: Россия - Чехия [02.01 ...
  • Чемпионат Германии 2011-12 / 28-й тур / Боруссия Д - Штутгарт / НТВ+ [Футбо ...
  • Чемпионат Испании 2011-12 / 36-й тур / Реал Мадрид - Севилья / НТВ+ [Футбол ...
  • Чемпионат Испании 2011-12 / 20-й тур / Атлетик - Реал / НТВ+ [Футбол, 02.05 ...
  • Чемпионат Европы 2012 / Группа C / 1-й тур / Ирландия — Хорватия / ТРК Футб ...
  • Чемпионат Англии 2011-12 / 31 тур / Ньюкасл - Ливерпуль / Спорт 1 [Футбол, ...
  • Чемпионат Англии 2011-12 / 35 тур / Манчестер Юнайтед - Эвертон / Спорт 1 [ ...
  • Чемпионат Европы 2012 / Группа B / 1-й тур / Германия - Португалия / Спорт ...
  • Чемпионат России 2012-13 / 1-й тур / Мордовия - Локомотив / НТВ+ [Футбол, 2 ...
  • Чемпионат России 2012-2013 / 4 - й тур / Зенит - Спартак / НТВ+ [Футбол, 11 ...
  • Чемпионат России 2012-13 / 11-й тур / Спартак - ЦСКА / НТВ+ [Футбол, 07.10. ...
  • Информация
    Посетители, находящиеся в группе Гости, не могут оставлять комментарии к данной публикации.