вход на сайт

Имя пользователя :
Пароль :

Восстановление пароля Регистрация
Чемпионат России 2012-13 / 1-й тур / Мордовия - Локомотив / НТВ+ [Футбол, 20.07.2012, SD, XviD, RU, IPTV]
Рейтинг:
(голосов: 1)



[img]{THEME}/images/logopost.png[/img]



Чемпионат России 2012-13 / 1-й тур
Мордовия - Локомотив

Вид спорта: Футбол
Год выпуска: 20.07.2012
Язык комментариев: Русский
Участники: Мордовия - Локомотив
Описание: Чемпионат России 2012-13. 1-й тур
Доп. информация: В ходе трансляции картинка из Саранска пропадала(по вине НТВ+) выпало 2 минуты матча
Составы команд ▼ Результат матча ▼2-3
Качество: IPTVRip
Продолжительность ▼02:29:03
Формат: AVI
Видео кодек: XviD
Аудио кодек: MP3
Свойства видео: 704x400 (1.78:1), 25 fps, XviD ~1700 kbps avg, 0.21 bit/pixel
Свойства аудио: 48 kHz, MPEG Layer 3, 2 ch, ~128.00 kbps avg
Тех. описание ▼Format : AVI
Format/Info : Audio Video Interleave
File size : 1.07 GiB
Duration : 1h 23mn
Overall bit rate : 1 832 Kbps
Writing library : VirtualDub build 32507/release

Video
ID : 0
Format : MPEG-4 Visual
Format profile : Advanced [email protected]
Format settings, BVOP : 2
Format settings, QPel : No
Format settings, GMC : No warppoints
Format settings, Matrix : Default (H.263)
Muxing mode : Packed bitstream
Codec ID : XVID
Codec ID/Hint : XviD
Duration : 1h 23mn
Bit rate : 1 694 Kbps
Width : 704 pixels
Height : 400 pixels
Display aspect ratio : 16:9
Frame rate : 25.000 fps
Color space : YUV
Chroma subsampling : 4:2:0
Bit depth : 8 bits
Scan type : Progressive
Compression mode : Lossy
Bits/(Pixel*Frame) : 0.241
Stream size : 1 015 MiB (92%)
Writing library : XviD 64

Audio
ID : 1
Format : MPEG Audio
Format version : Version 1
Format profile : Layer 3
Mode : Joint stereo
Mode extension : MS Stereo
Codec ID : 55
Codec ID/Hint : MP3
Duration : 1h 23mn
Bit rate mode : Constant
Bit rate : 128 Kbps
Channel(s) : 2 channels
Sampling rate : 48.0 KHz
Compression mode : Lossy
Stream size : 76.7 MiB (7%)
Alignment : Split accross interleaves
Interleave, duration : 40 ms (1.00 video frame)
Interleave, preload duration : 500 ms


Стол заказов POWER | Отзывы | Вступление в POWER
Мои раздачи


7f809ace4a860d1cbf72744e813a3626c3398c8cЧемпионат России 2012-13 / 1-й тур / Мордовия - Локомотив / НТВ+ [Футбол, 20.07.2012, SD, XviD, RU, IPTV] Чемпионат России 2012-13 / 1-й тур / Мордовия - Локомотив / НТВ+ [Футбол, 20.07.2012, SD, XviD, RU, IPTV] " />

Аплоадер: Админ, дата: 20-07-2012, 23:46, торрент скачан: 359 раз

Понравилась раздача? Посмотрите эти:
  • Чемпионат Германии 2012-2013 / 32-й тур / Обзор матчей / Футбол + (UA) [06. ...
  • Чемпионат Италии 2012-13 / 36-й тур / Рома — Кьево / НТВ+ [07.05.2013, SD, ...
  • Чемпионат России 2012-13 / 25-й тур / ЦСКА — Спартак / НТВ+ [Футбол, 21.04. ...
  • Чемпионат России 2012-13 / 26-й тур / Итоги дня / Первый день / НТВ+ [Футбо ...
  • Чемпионат Франции 2012-2013 / 32-й тур / Обзор матчей / Футбол+ (UA) [Футбо ...
  • Чемпионат России 2012-13 / 23-й тур / Итоги дня / Второй выпуск / НТВ+ [Фут ...
  • Чемпионат России 2012-13 / 22-й тур / Итоги дня / Второй выпуск / НТВ+ [Фут ...
  • Чемпионат Германии 2011-12 / 28-й тур / Боруссия Д - Штутгарт / НТВ+ [Футбо ...
  • Чемпионат Испании 2011-12 / 36-й тур / Реал Мадрид - Севилья / НТВ+ [Футбол ...
  • Чемпионат Европы 2012 / Группа C / 1-й тур / Ирландия — Хорватия / ТРК Футб ...
  • Чемпионат Европы 2012 / Группа C / 3-й тур / Италия - Ирландия / Первый кан ...
  • Чемпионат России 2012-13 / 7-й тур / Мордовия - Зенит / НТВ+ [31.08.2012, Ф ...
  • Чемпионат Англии 2012-13 / 11-й тур / Челси - Ливерпуль / Футбол [Футбол, 1 ...
  • Чемпионат Италии 2012-13 / 16-й тур / Интер — Наполи / НТВ+ [Футбол, 09.12. ...
  • Чемпионат Англии 2011-12 / 35 тур / Манчестер Юнайтед - Эвертон / Спорт 1 [ ...
  • Чемпионат Англии 2011-2012 / Championship / 45-й Тур / Обзор Матчей / НТВ+ ...
  • Локомотив - время надежд / НТВ+ [Футбол, 19.07.2012, IPTV, RU]
  • Чемпионат России 2012-2013 / 1-й тур / Алания (Владикавказ) - Спартак (Моск ...
  • Чемпионат России 2012-2013 / 4 - й тур / Зенит - Спартак / НТВ+ [Футбол, 11 ...
  • Чемпионат Испании 2012-13 | 5-й тур | Обзор матчей | НТВ+ [Футбол, 24.09.20 ...
  • Информация
    Посетители, находящиеся в группе Гости, не могут оставлять комментарии к данной публикации.