вход на сайт

Имя пользователя :
Пароль :

Восстановление пароля Регистрация
Локомотив - время надежд / НТВ+ [Футбол, 19.07.2012, IPTV, RU]
Рейтинг:
(голосов: 1)



[img]{THEME}/images/logopost.png[/img]



Локомотив - время надежд

Вид спорта: Футбол
Год выпуска: 19.07.2012
Язык комментариев: Русский
Участники: Футболисты, тренеры
Описание: Программа о футбольном клубе Локомотив
Качество: IPTVRip
Продолжительность ▼00:49:55
Формат: AVI
Видео кодек: XviD
Аудио кодек: MP3
Свойства видео: 704x400 (1.76:1), 25 fps, XviD MPEG-4 ~1690 kbps avg, 0.24 bit/pixel
Свойства аудио: 48 kHz, MPEG Layer 3, 2 ch, ~128.00 kbps avg
Тех. описание ▼Format : AVI
Format/Info : Audio Video Interleave
File size : 656 MiB
Duration : 49mn 55s
Overall bit rate : 1 836 Kbps
Writing library : VirtualDub build 32507/release

Video
ID : 0
Format : MPEG-4 Visual
Codec ID : XVID
Codec ID/Hint : XviD
Duration : 49mn 55s
Bit rate : 1 698 Kbps
Width : 704 pixels
Height : 400 pixels
Display aspect ratio : 16:9
Frame rate : 25.000 fps
Color space : YUV
Chroma subsampling : 4:2:0
Compression mode : Lossy
Bits/(Pixel*Frame) : 0.241
Stream size : 426 MiB (65%)

Audio
ID : 1
Format : MPEG Audio
Codec ID : 55
Codec ID/Hint : MP3
Duration : 49mn 55s
Bit rate : 128 Kbps
Channel(s) : 2 channels
Sampling rate : 48.0 KHz
Compression mode : Lossy
Stream size : 32.1 MiB (5%)
Alignment : Aligned on interleaves
Interleave, duration : 40 ms (1.00 video frame)
Interleave, preload duration : 500 ms


Стол заказов POWER | Отзывы | Вступление в POWER
Мои раздачи


3e6ea59188516ddec3670cba1ccfaeaf929566b3Локомотив - время надежд / НТВ+ [Футбол, 19.07.2012, IPTV, RU] Локомотив - время надежд / НТВ+ [Футбол, 19.07.2012, IPTV, RU] " />

Аплоадер: Админ, дата: 19-07-2012, 23:38, торрент скачан: 359 раз

Понравилась раздача? Посмотрите эти:
  • Чемпионат Германии 2012-2013 / 32-й тур / Обзор матчей / Футбол + (UA) [06. ...
  • Чемпионат Франции 2012-2013 / 35-й тур / Обзор матчей / Футбол+ (UA) [Футбо ...
  • Чемпионат Франции 2012-2013 / 32-й тур / Обзор матчей / Футбол+ (UA) [Футбо ...
  • Чемпионат Германии 2011-12 / 28-й тур / Боруссия Д - Штутгарт / НТВ+ [Футбо ...
  • Чемпионат Испании 2011-12 / 36-й тур / Реал Мадрид - Севилья / НТВ+ [Футбол ...
  • Чемпионат Европы 2012 / Группа C / 1-й тур / Испания - Италия / Россия 1 [Ф ...
  • Чемпионат Европы 2012 / Группа C / 1-й тур / Ирландия — Хорватия / ТРК Футб ...
  • Олимпиада 2012 / Мужчины / Группа D / 1-й тур / Испания — Япония / НТВ+ [Фу ...
  • Олимпиада 2012 / Футбол / Мужчины / Группа A / 3-й тур / Великобритания - У ...
  • Олимпиада 2012 / Мужчины / Матч за 3-е место / Корея - Япония / НТВ+ [Футбо ...
  • Чемпионат Англии 2011-12 / 31 тур / Ньюкасл - Ливерпуль / Спорт 1 [Футбол, ...
  • Чемпионат Испании 2011-12 / 35-й тур / Барселона - Реал М / НТВ+ [Футбол, 2 ...
  • Чемпионат Англии 2011-2012 / Championship / 45-й Тур / Обзор Матчей / НТВ+ ...
  • Чемпионат Европы 2012 / Группа B / 1-й тур / Германия - Португалия / Спорт ...
  • NBA Finals 2012 / Sportscenter / В преддверии 3-ей игры / Viasat Sport [Бас ...
  • NBA Finals 2012 / Sportscenter / Четвертая игра под микроскопом / Viasat Sp ...
  • Чемпионат Европы 2012 / Финал / Испания - Италия / Россия 1 [Футбол, 01.07. ...
  • Товарищеский матч 2012 / АмаЗулу (ЮАР) - Манчестер Юнайтед (Англия) / MU TV ...
  • Чемпионат России 2012-13 / 1-й тур / Мордовия - Локомотив / НТВ+ [Футбол, 2 ...
  • Чемпионат Испании 2012-13 | 5-й тур | Обзор матчей | НТВ+ [Футбол, 24.09.20 ...
  • Информация
    Посетители, находящиеся в группе Гости, не могут оставлять комментарии к данной публикации.