вход на сайт

Имя пользователя :
Пароль :

Восстановление пароля Регистрация
Товарищеский матч 2012 / АмаЗулу (ЮАР) - Манчестер Юнайтед (Англия) / MU TV [Футбол, 18.07.2012, SD, XviD, EN, DVB]
Рейтинг:
(голосов: 1)



[img]{THEME}/images/logopost.png[/img]



Товарищеский матч 2012

Вид спорта: Футбол
Год выпуска: 17.07.2012
Язык комментариев: Английский
Участники: АмаЗулу (ЮАР) - Манчестер Юнайтед (Англия)
Описание: Товарищеский матч
Качество: DVBRip
Продолжительность ▼02:03:14
Формат: AVI
Видео кодек: XviD
Аудио кодек: MP3
Свойства видео: 640x368, 25 fps, 1000 kbps
Свойства аудио: 48 KHz, 2 ch, 128kbps
Тех. описание ▼Format : AVI
Format/Info : Audio Video Interleave
File size : 394 MiB
Duration : 50mn 51s
Overall bit rate : 1 084 Kbps

Video
ID : 0
Format : MPEG-4 Visual
Format profile : Advanced [email protected]
Format settings, BVOP : 2
Format settings, QPel : No
Format settings, GMC : No warppoints
Format settings, Matrix : Default (H.263)
Codec ID : XVID
Codec ID/Hint : XviD
Duration : 50mn 51s
Bit rate : 998 Kbps
Width : 640 pixels
Height : 368 pixels
Display aspect ratio : 16:9
Frame rate : 25.000 fps
Color space : YUV
Chroma subsampling : 4:2:0
Bit depth : 8 bits
Scan type : Progressive
Compression mode : Lossy
Bits/(Pixel*Frame) : 0.170
Stream size : 363 MiB (92%)
Writing library : XviD 1.2.1 (UTC 2008-12-04)

Audio
ID : 1
Format : MPEG Audio
Format version : Version 1
Format profile : Layer 3
Mode : Joint stereo
Mode extension : MS Stereo
Codec ID : 55
Codec ID/Hint : MP3
Duration : 50mn 51s
Bit rate mode : Constant
Bit rate : 80.0 Kbps
Channel(s) : 2 channels
Sampling rate : 32.0 KHz
Compression mode : Lossy
Stream size : 29.1 MiB (7%)
Alignment : Aligned on interleaves
Interleave, duration : 160 ms (4.00 video frames)
Interleave, preload duration : 216 ms
Title : Second Half - Friendly - Amazulu v. Man Utd - 18-07-12
Writing library : LAME3.99r
Encoding settings : -m j -V 4 -q 2 -lowpass 13.5 -b 80

Стол заказов POWER | Отзывы | Вступление в POWER
Мои раздачи


4b01c9e2ddd9bbdd7ef2edfbb318517690d83092Товарищеский матч 2012 / АмаЗулу (ЮАР) - Манчестер Юнайтед (Англия) / MU TV [Футбол, 18.07.2012, SD, XviD, EN, DVB] Товарищеский матч 2012 / АмаЗулу (ЮАР) - Манчестер Юнайтед (Англия) / MU TV [Футбол, 18.07.2012, SD, XviD, EN, DVB] " />

Аплоадер: Админ, дата: 19-07-2012, 14:18, торрент скачан: 359 раз

Понравилась раздача? Посмотрите эти:
  • Товарищеский матч 2013 / Англия - Германия / Спорт 1HD [футбол, 19.11.2013 ...
  • Товарищеский матч 2013 / Англия - Германия / Спорт 1 [футбол, 19.11.2013, H ...
  • Лига Чемпионов 2013-2014 / Группа A / Шахтер (Украина) - Манчестер Юнайтед ...
  • Товарищеский матч / Легенды Манчестер Юнайтед - Легенды Реал Мадрида / Spo ...
  • Товарищеский матч 2013 / Звезды Сингха - Манчестер Юнайтед / beIN Sport 1 H ...
  • Товарищеский матч 2013 / Сборная клубов Таиланда - Барселона (Испания) / JS ...
  • Товарищеский матч 2013 / Англия - Шотландия / Спорт 1 [Футбол, 14.08.2013, ...
  • Товарищеский матч 2013 / Манчестер Сити (Англия) - Челси (Англия) / JSC [Фу ...
  • Товарищеский матч 2013 / Бразилия - Англия / Спорт 1 HD [футбол, 02.06.2013 ...
  • Лига Чемпионов 2012-13 / 1/8 финала / Ответный матч / Манчестер Юнайтед (Ма ...
  • Товарищеский Матч 2013 / Англия - Бразилия / Спорт 1HD [06.02.2013,футбол, ...
  • Лига Чемпионов 2012-13 / 1/8 финала / 1-й матч / Реал Мадрид (Испания) - Ма ...
  • Товарищеский матч 2012 / Торонто (Канада) - Ливерпуль (Англия) / TV [Футбол ...
  • Товарищеский матч 2012 / Швеция - Англия / ITV1 HD [Футбол, 14.11.2012, HD, ...
  • Чемпионат Англии 2012-2013 / 22-й тур / Манчестер Юнайтед (Манчестер) - Лив ...
  • Товарищеский матч / Барселона (Испания) vs Манчестер Юнайтед (Англия) [футб ...
  • Чемпионат Англии 2011-12 / 35 тур / Манчестер Юнайтед - Эвертон / Спорт 1 [ ...
  • Лига Чемпионов 2011-12 / 1/2 финала / Ответный матч / Барселона (Испания) - ...
  • Чемпионат Англии 2011-12 / 37-й тур / Манчестер Юнайтед - Суонси Сити / Спо ...
  • Товарищеский матч / Легенды Реал Мадрида - Легенды Манчестер Юнайтед / ТРК ...
  • Товарищеский матч 2012 / Звезды мирового футбола в Майами / "Друзья Месси" ...
  • Товарищеский матч 2012 / Аякс Кейптаун (ЮАР) - Манчестер Юнайтед (Англия) / ...
  • Товарищеский матч / Звёзды Малайзии - Манчестер Сити / ТК Футбол [Футбол, 2 ...
  • Товарищеский матч 2012 / Манчестер Юнайтед - Барселона / Футбол [Футбол, 08 ...
  • Товарищеский матч 2012 / Ганновер (Германия) - Манчестер Юнайтед (Англия) / ...
  • Информация
    Посетители, находящиеся в группе Гости, не могут оставлять комментарии к данной публикации.