вход на сайт

Имя пользователя :
Пароль :

Восстановление пароля Регистрация
Чемпионат Европы 2012 / TOP 10 Goals & Best Moments [Футбол, 04.07.2012, HD, 720p, H.264, EN, HDTV]
Рейтинг:
(голосов: 1)



[img]{THEME}/images/logopost.png[/img]



Чемпионат Европы 2012
TOP 10 Goals &
Best Moments
Вид спорта: Футбол
Год выпуска: 04.07.2012
Язык комментариев: Английский
Участники: Участники Чемпионата Европы
Описание: Лучшие моменты и голыЧемпионата Европы по футболу 2012
Автор рипа/записи: TeaM366
Качество: HDTVRip
Продолжительность ▼00:10:00
Формат: MP4
Видео кодек: H.264
Аудио кодек: AAC
Свойства видео: 1280x720, 25fps, 3464kbps
Свойства аудио: AAC, 41.0 kHz, 2ch, 192 kbps(Ю.Розанов)

Тех. данные ▼Format : MPEG-4
Format profile : Base Media / Version 2
Codec ID : mp42
File size : 262 MiB
Duration : 10mn 0s
Overall bit rate mode : Variable
Overall bit rate : 3 660 Kbps
Encoded date : UTC 2012-07-03 08:13:47
Tagged date : UTC 2012-07-03 08:13:47

Video
ID : 2
Format : AVC
Format/Info : Advanced Video Codec
Format profile : [email protected]
Format settings, CABAC : Yes
Format settings, ReFrames : 2 frames
Muxing mode : Container [email protected]
Codec ID : avc1
Codec ID/Info : Advanced Video Coding
Duration : 10mn 0s
Bit rate mode : Variable
Bit rate : 3 464 Kbps
Maximum bit rate : 16.0 Mbps
Width : 1 280 pixels
Height : 720 pixels
Display aspect ratio : 16:9
Frame rate mode : Constant
Frame rate : 25.000 fps
Color space : YUV
Chroma subsampling : 4:2:0
Bit depth : 8 bits
Scan type : Progressive
Bits/(Pixel*Frame) : 0.150
Stream size : 248 MiB (95%)
Language : English
Encoded date : UTC 2012-07-03 08:13:47
Tagged date : UTC 2012-07-03 08:13:47

Audio
ID : 1
Format : AAC
Format/Info : Advanced Audio Codec
Format profile : LC
Codec ID : 40
Duration : 9mn 59s
Bit rate mode : Constant
Bit rate : 192 Kbps
Channel(s) : 2 channels
Channel positions : Front: L R
Sampling rate : 44.1 KHz
Compression mode : Lossy
Stream size : 13.7 MiB (5%)
Language : English
Encoded date : UTC 2012-07-03 08:13:47
Tagged date : UTC 2012-07-03 08:13:47

Стол заказов POWER | Отзывы | Вступление в POWER
Мои раздачи
Храню файлы 3 дня, потом удаляю


441cad37195ea36c1991fc69bd31fcf301d9704cЧемпионат Европы 2012 / TOP 10 Goals & Best Moments [Футбол, 04.07.2012, HD, 720p, H.264, EN, HDTV] Чемпионат Европы 2012 / TOP 10 Goals & Best Moments [Футбол, 04.07.2012, HD, 720p, H.264, EN, HDTV] " />

Аплоадер: Админ, дата: 4-07-2012, 18:35, торрент скачан: 359 раз

Понравилась раздача? Посмотрите эти:
  • Cristiano Ronaldo - All 400 Goals - 2002-14 - HD
  • Чемпионат Европы 2013 / EURO 2013. U-21 / Группа A / Обзор матчей 05.06.201 ...
  • Чемпионат Голландии 2013-14 / 1-й тур / Обзоры матчей / FOX1HD [Футбол, 04. ...
  • Чемпионат Голландии 2013-14 / 2-й тур / Обзоры матчей / FOX1HD [Футбол, 11. ...
  • NHL 12/13 / Stanley Cup Playoffs / Highlights Playoff Edition [Хоккей, 06.0 ...
  • NHL 12/13 / Stanley Cup Playoffs / Highlights Playoff Edition [Хоккей, 07.0 ...
  • NHL 12/13 / Stanley Cup Playoffs / Highlights Playoff Edition [Хоккей, 09.0 ...
  • Чемпионат Англии 2012-2013 / 33-й тур / Обзор Матчей / Спорт 1 [Футбол, 15. ...
  • Футбольный клуб / Чемпионат Европы 2012 / НТВ+ [Футбол, 08.06.2012, HDTVRip ...
  • Чемпионат Европы 2012 / Группа C / 1-й тур / Ирландия — Хорватия / ТРК Футб ...
  • Чемпионат Европы 2012 / 1/4 финала / Чехия - Португалия / Спорт 1 HD [Футбо ...
  • Чемпионат Европы 2012 / 1/4 финала / Англия - Италия / Спорт 1 HD [Футбол, ...
  • Чемпионат Европы 2012 / 1/2 финала / Португалия - Испания / Спорт 1 HD [Фу ...
  • Чемпионат Европы 2012 / 1/2 финала / Германия - Италия / Спорт 1 HD [Футбо ...
  • Чемпионат Европы 2012 / Финал / Испания - Италия / Спорт 1 HD [Футбол, 01. ...
  • Чемпионат Европы 2012 / Финал / Испания- Италия / Спорт 1 HD [ФФутбол, 01.0 ...
  • Madonna / Girl Gone Wild [2012, Pop, HDTV]
  • Чемпионат Европы 2012 / Группа B / 1-й тур / Германия - Португалия / Спорт ...
  • Чемпионат Европы. Группа D. Швеция - Англия / EURO-2012. Group D. Sweden - ...
  • LeBron James 2012 Finals MVP [Баскетбол, 24.06.2012, HD, 720p, H.264, EN, H ...
  • Top 10 Plays of the 2012 NBA Finals [Баскетбол, 25.06.2012, HD, 720p, H.264 ...
  • Top 10 Dunks of the 2012 NBA Finals [Баскетбол, 25.06.2012, HD, 720p, H.264 ...
  • Чемпионат Европы. 1/2 финала. Германия - Италия / EURO-2012. Semi-final. Ge ...
  • Чемпионат Испании 2012-13 | Liga BBVA | 6-й тур | Обзор матчей | НТВ+ [Футб ...
  • Лига Европы 2012-13 / 3-й тур / Обзор всех матчей / Uefa Europa League High ...
  • Информация
    Посетители, находящиеся в группе Гости, не могут оставлять комментарии к данной публикации.