вход на сайт

Имя пользователя :
Пароль :

Восстановление пароля Регистрация
Чемпионат Европы 2012 / Финал / Испания - Италия / Россия 1 [Футбол, 01.07.2012, SD, XviD, RU, IPTV]
Рейтинг:
(голосов: 1)



[img]{THEME}/images/logopost.png[/img]



Чемпионат Европы 2012

Финал
Вид спорта: Футбол
Год выпуска: 01.07.2012
Язык комментариев: Русский (Владимир Стогниенко)
Участники: Испания - Италия
Описание: ФиналЧемпионата Европы по футболу 2012
Киев (Украина). Стадион НСК Олимпийский.
63170 зрителей (вместимость - 70050)
Главный судья: Педру Проэнса (Лиссабон, Португалия)Составы команд ▼
Доп. информация: Отсутствует церемония закрытия (шоу до матча)
Качество: IPTVRip
Продолжительность ▼01:58:30
Формат: AVI
Видео кодек: XviD
Аудио кодек: MP3
Свойства видео: 704x448 (1,57:1), 25,000fps, 1700 Kbps
Свойства аудио: 48 kHz, 2ch, 128 kbps
Тех. данные ▼Format : AVI
Format/Info : Audio Video Interleave
File size : 1.52 GiB
Duration : 1h 58mn
Overall bit rate : 1 836 Kbps
Writing library : VirtualDub build 32507/release

Video
ID : 0
Format : MPEG-4 Visual
Codec ID : XVID
Codec ID/Hint : XviD
Duration : 1h 58mn
Bit rate : 1 698 Kbps
Width : 704 pixels
Height : 448 pixels
Display aspect ratio : 1.571
Frame rate : 25.000 fps
Color space : YUV
Chroma subsampling : 4:2:0
Compression mode : Lossy
Bits/(Pixel*Frame) : 0.215
Stream size : 378 MiB (24%)

Audio
ID : 1
Format : MPEG Audio
Codec ID : 55
Codec ID/Hint : MP3
Duration : 1h 58mn
Bit rate : 128 Kbps
Channel(s) : 1 channel
Sampling rate : 48.0 KHz
Compression mode : Lossy
Stream size : 28.5 MiB (2%)
Alignment : Aligned on interleaves
Interleave, duration : 40 ms (1.00 video frame)
Interleave, preload duration : 500 ms

Стол заказов POWER | Отзывы | Вступление в POWER
Мои раздачи


0ea2920364822c51cfe9367594849160a1700c39Чемпионат Европы 2012 / Финал / Испания - Италия / Россия 1 [Футбол, 01.07.2012, SD, XviD, RU, IPTV] Чемпионат Европы 2012 / Финал / Испания - Италия / Россия 1 [Футбол, 01.07.2012, SD, XviD, RU, IPTV] " />

Аплоадер: Админ, дата: 2-07-2012, 03:17, торрент скачан: 359 раз

Понравилась раздача? Посмотрите эти:
  • Чемпионат Европы 2012 / Группа A / 1-й тур / Польша — Греция / ОРТ [Футбол, ...
  • Чемпионат Европы 2012 / Группа C / 1-й тур / Испания - Италия / Россия 1 [Ф ...
  • Чемпионат Европы 2012 / Группа C / 1-й тур / Ирландия — Хорватия / ТРК Футб ...
  • Чемпионат Европы 2012 / Группа D / 1-й тур / Украина - Швеция / Спорт 1 [11 ...
  • Чемпионат Европы 2012 / Группа C / 3-й тур / Италия - Ирландия / Первый кан ...
  • Чемпионат Европы 2012 / 1/4 финала / Чехия - Португалия / Россия 1 [21.06.2 ...
  • Чемпионат Европы 2012 / 1/4 финала / Англия - Италия / Спорт 1 HD [Футбол, ...
  • Чемпионат Европы 2012 / 1/2 финала / Португалия - Испания / Спорт 1 HD [Фу ...
  • Чемпионат Европы 2012 / Финал / Испания - Италия / Спорт 1 HD [Футбол, 01. ...
  • Чемпионат Европы 2012 / Финал / Испания- Италия / Спорт 1 HD [ФФутбол, 01.0 ...
  • Лига Европы 2012-13 / 6-й тур / Группа H / Интер (Италия) — Нефтчи (Азербай ...
  • Чемпионат Европы 2012 / EURO 2012 / Группа A / 1-й тур / Россия — Чехия / Т ...
  • Чемпионат Европы 2012 / Группа B / 1-й тур / Германия - Португалия / Спорт ...
  • Чемпионат Европы 2012 / Группа C / 3-й тур / Хорватия - Испания / ZDF [Футб ...
  • Чемпионат Европы 2012 / 1/4 Финала / Чехия — Португалия / Футбол [Футбол, 2 ...
  • Чемпионат Европы 2012 / 1/4 Финала / Испания — Франция / Спорт 1 HD [Футбол ...
  • Чемпионат Европы 2012 / 1/2 финала / Португалия - Испания / Спорт 1 HD [Фут ...
  • Чемпионат Европы. 1/2 финала. Германия - Италия / EURO-2012. Semi-final. Ge ...
  • Чемпионат Европы 2012 / Финал / Испания - Италия / Спорт 1 [01.07.2012, Фут ...
  • Чемпионат Европы 2012 / Финал / Испания — Италия / Футбол [Футбол, 01.07.20 ...
  • Чемпионат Европы 2012 / Финал / Испания - Италия / Спорт 1 HD [Футбол, 28.0 ...
  • Локомотив - время надежд / НТВ+ [Футбол, 19.07.2012, IPTV, RU]
  • Чемпионат России 2012-13 / 1-й тур / Мордовия - Локомотив / НТВ+ [Футбол, 2 ...
  • Чемпионат Испании 2012-13 | 5-й тур | Обзор матчей | НТВ+ [Футбол, 24.09.20 ...
  • Лига Европы 2012-13 / 5-й тур / Группа А / Анжи (Россия) - Удинезе (Италия) ...
  • Информация
    Посетители, находящиеся в группе Гости, не могут оставлять комментарии к данной публикации.