вход на сайт

Имя пользователя :
Пароль :

Восстановление пароля Регистрация
Товарищеский матч 2012 / Звезды мирового футбола в Майами / "Друзья Месси" - Сборная остального мира / ТРК Футбол [Футбол, 24.06.2012, SD, XviD, DVB, UA]
Рейтинг:
(голосов: 1)



[img]{THEME}/images/logopost.png[/img]



Товарищеский матч 2012
Звезды мирового футбола в Майами

Вид спорта: Футбол
Год выпуска: 24.06.2012
Язык комментариев: Украинский
Участники: Звезды мирового футбола
Описание: Товарищеский матч
Составы команд ▼
Качество: DVBRip
Продолжительность ▼01:56:00
Формат: AVI
Видео кодек: XviD
Аудио кодек: MP3
Свойства видео: 704x400 (1.78:1), 25 fps, XviD build 61 ~1700 kbps avg, ~0.24 bit/pixel
Свойства аудио: 48 kHz, MPEG Layer 3, 2 ch, ~128.00 kbps avg
Тех. данные ▼Format : AVI
Format/Info : Audio Video Interleave
File size : 1.49 GiB
Duration : 1h 56mn
Overall bit rate : 1 837 Kbps
Writing library : VirtualDub build 32661/release

Video
ID : 0
Format : MPEG-4 Visual
Format profile : Advanced [email protected]
Format settings, BVOP : 2
Format settings, QPel : No
Format settings, GMC : No warppoints
Format settings, Matrix : Default (MPEG)
Muxing mode : Packed bitstream
Codec ID : XVID
Codec ID/Hint : XviD
Duration : 1h 56mn
Bit rate : 1 628 Kbps
Width : 704 pixels
Height : 400 pixels
Display aspect ratio : 16:9
Frame rate : 25.000 fps
Color space : YUV
Chroma subsampling : 4:2:0
Bit depth : 8 bits
Scan type : Progressive
Compression mode : Lossy
Bits/(Pixel*Frame) : 0.231
Stream size : 1.32 GiB (89%)
Writing library : XviD 1.2.1 (UTC 2008-12-04)

Audio
ID : 1
Format : MPEG Audio
Format version : Version 1
Format profile : Layer 3
Mode : Joint stereo
Mode extension : MS Stereo
Codec ID : 55
Codec ID/Hint : MP3
Duration : 1h 56mn
Bit rate mode : Constant
Bit rate : 128 Kbps
Channel(s) : 2 channels
Sampling rate : 48.0 KHz
Compression mode : Lossy
Stream size : 106 MiB (7%)
Alignment : Split accross interleaves


Стол заказов POWER | Отзывы | Вступление в POWER
Мои раздачи


85dd48ec8f821af52fd14e07f0936e20f19d3fcfТоварищеский матч 2012 / Звезды мирового футбола в Майами / "Друзья Месси" - Сборная остального мира / ТРК Футбол [Футбол, 24.06.2012, SD, XviD, DVB, UA] Товарищеский матч 2012 / Звезды мирового футбола в Майами / "Друзья Месси" - Сборная остального мира / ТРК Футбол [Футбол, 24.06.2012, SD, XviD, DVB, UA] " />

Аплоадер: Админ, дата: 24-06-2012, 13:11, торрент скачан: 359 раз

Понравилась раздача? Посмотрите эти:
  • Товарищеский матч 2013 / Англия - Германия / Спорт 1 [футбол, 19.11.2013, H ...
  • Товарищеский матч 2013 / Сборная клубов Таиланда - Барселона (Испания) / JS ...
  • Товарищеский матч 2013 / Англия - Шотландия / Спорт 1 [Футбол, 14.08.2013, ...
  • Товарищеский матч 2013 / Германия - Парагвай / Спорт 1 [Футбол, 14.08.2013, ...
  • Товарищеский матч 2013 / Манчестер Сити (Англия) - Челси (Англия) / JSC [Фу ...
  • Чемпионат Европы 2012 / Группа C / 1-й тур / Ирландия — Хорватия / ТРК Футб ...
  • Товарищеский матч 2012 / Торонто (Канада) - Ливерпуль (Англия) / TV [Футбол ...
  • Олимпиада 2012 / Мужчины / Группа D / 1-й тур / Испания — Япония / НТВ+ [Фу ...
  • Товарищеский матч 2012 / Касабланка - Барселона [футбол, 29.07.2012, H264, ...
  • Олимпиада 2012 / Футбол / Мужчины / Группа A / 3-й тур / Великобритания - У ...
  • Товарищеский матч 2012 / ПСЖ (Франция) - Барселона (Испания) [футбол, 04.08 ...
  • Чемпионат Англии 2012-13 / 11-й тур / Челси - Ливерпуль / Футбол [Футбол, 1 ...
  • Товарищеский матч 2012 / Швеция - Англия / ITV1 HD [Футбол, 14.11.2012, HD, ...
  • Товарищеский матч / Друзья Роналдо - Друзья Зидана / ТК Футбол [футбол, 19 ...
  • Благотворительный матч 2010 | Сборная друзей Зидана и Роналдо — Сборная звё ...
  • Лига Чемпионов 2011-12 / 1/2 финала / Первый матч / Челси (Англия) - Барсел ...
  • Лига Чемпионов 2011-12 / 1/2 финала / Ответный матч / Барселона (Испания) - ...
  • Лига Чемпионов 2011-12 / 1/2 финала / Ответный матч / Реал Мадрид (Испания) ...
  • Товарищеский матч 2012 / Аргентина - Бразилия / Россия 2 [Футбол, 09.06.201 ...
  • Товарищеский матч 2012 / АмаЗулу (ЮАР) - Манчестер Юнайтед (Англия) / MU TV ...
  • Чемпионат России 2012-13 / 1-й тур / Мордовия - Локомотив / НТВ+ [Футбол, 2 ...
  • Товарищеский матч 2012 / Аякс Кейптаун (ЮАР) - Манчестер Юнайтед (Англия) / ...
  • Товарищеский матч / Звёзды Малайзии - Манчестер Сити / ТК Футбол [Футбол, 2 ...
  • Товарищеский матч 2012 / Манчестер Юнайтед - Барселона / Футбол [Футбол, 08 ...
  • Товарищеский матч 2012 / Ганновер (Германия) - Манчестер Юнайтед (Англия) / ...
  • Информация
    Посетители, находящиеся в группе Гости, не могут оставлять комментарии к данной публикации.