вход на сайт

Имя пользователя :
Пароль :

Восстановление пароля Регистрация
Товарищеский матч 2012 / Аргентина - Бразилия / Россия 2 [Футбол, 09.06.2012, SD, MPEG2, IPTV, RU]
Рейтинг:
(голосов: 1)



[img]{THEME}/images/logopost.png[/img]



Товарищеский матч / Аргентина - Бразилия

Вид спорта: Футбол
Год выпуска: 09.06.2012
Язык комментариев: Русский(Максим Сенаторов )
Участники: Аргентина - Бразилия
Описание: Товарищеский матч между командами Аргентина - Бразилия
Стадион: Метлайф - Нью-Мидоулэндс (Ист-Рутерфорд, США).
Главный судья: Джейр Марруфо (США)
Составы команд ▼Аргентина: Ромеро, Сабалета, Фернандес, Гарай, Родригес, Гаго, Соса, Маскерано, Ди Мария, Месси, Игуаин.
Бразилия: Кабрал Барбоза, Марсело, дос Сантос, Жуан Жесус, Рафаэл, Сандро Раньери, Ромуло, Бруно Увини Неймар, Дамиан, Халк
Качество: IPTVRip
Продолжительность ▼00:56:23 + 00:54:41
Формат: MPEG-TS
Видео кодек: MPEG2
Аудио кодек: MP2
Свойства видео: MPEG Video at 2516 Кбит/сек, 704x 576 at 25.000 fps
Свойства аудио: MPEG Audio at 192 Кбит/сек, 2 канала(ов), 48,0 КГц
Тех. данные ▼Format : MPEG-TS
File size : 1.12 GiB
Duration : 56mn 23s
Overall bit rate mode : Variable
Overall bit rate : 2 851 Kbps

Video
ID : 69 (0x45)
Menu ID : 1 (0x1)
Format : MPEG Video
Format version : Version 2
Format profile : [email protected]
Format settings, BVOP : Yes
Format settings, Matrix : Custom
Format settings, GOP : M=3, N=24
Codec ID : 2
Duration : 56mn 22s
Bit rate mode : Variable
Bit rate : 2 516 Kbps
Maximum bit rate : 15.0 Mbps
Width : 704 pixels
Height : 576 pixels
Display aspect ratio : 4:3
Frame rate : 25.000 fps
Standard : PAL
Color space : YUV
Chroma subsampling : 4:2:0
Bit depth : 8 bits
Scan type : Interlaced
Scan order : Top Field First
Compression mode : Lossy
Bits/(Pixel*Frame) : 0.248
Stream size : 1 015 MiB (88%)

Audio
ID : 68 (0x44)
Menu ID : 1 (0x1)
Format : MPEG Audio
Format version : Version 1
Format profile : Layer 2
Codec ID : 3
Duration : 56mn 23s
Bit rate mode : Constant
Bit rate : 192 Kbps
Channel(s) : 2 channels
Sampling rate : 48.0 KHz
Compression mode : Lossy
Delay relative to video : -659ms
Stream size : 77.4 MiB (7%)
Language : Russian


Стол заказов POWER | Отзывы | Вступление в POWER
Мои раздачи


a0a0f3d6d453fd16a4135a10b3b1d6befbdf4c20Товарищеский матч 2012 / Аргентина - Бразилия / Россия 2 [Футбол, 09.06.2012, SD, MPEG2, IPTV, RU] Товарищеский матч 2012 / Аргентина - Бразилия / Россия 2 [Футбол, 09.06.2012, SD, MPEG2, IPTV, RU] " />

Аплоадер: Админ, дата: 10-06-2012, 04:06, торрент скачан: 359 раз

Понравилась раздача? Посмотрите эти:
  • Товарищеский матч 2013 / Англия - Германия / Спорт 1 [футбол, 19.11.2013, H ...
  • Товарищеский матч 2013 / Бразилия - Франция / Россия 2 [футбол, 09.06.2013, ...
  • Футбол. Товарищеский матч. Барселона (Испания) - Сантос (Бразилия) [Футбол, ...
  • Товарищеский матч 2013 / Ливерпуль - Олимпиакос / BT Sport [Футбол, 03.08. ...
  • Товарищеский матч 2013 / Англия - Шотландия / Спорт 1 [Футбол, 14.08.2013, ...
  • Товарищеский матч 2013 / Италия - Аргентина / Rai HD [Футбол, 14.08.2013, S ...
  • Товарищеский матч 2013 / Германия - Парагвай / Спорт 1 [Футбол, 14.08.2013, ...
  • Товарищеский матч 2013 / Манчестер Сити (Англия) - Челси (Англия) / JSC [Фу ...
  • Товарищеский матч 2013 / Бразилия - Англия / Спорт 1 HD [футбол, 02.06.2013 ...
  • Кубок Либертадорес 2013 / 2-й раунд / Группа 3 / Атлетико Минейро (Бразилия ...
  • Товарищеский Матч 2013 / Англия - Бразилия / Спорт 1 [Футбол, 06.02.2013, S ...
  • Товарищеский Матч 2013 / Англия - Бразилия / Спорт 1HD [06.02.2013,футбол, ...
  • Товарищеский матч / США - Бразилия / ESPN [16.07.2012, Баскетбол, WEB-DLRip ...
  • Товарищеский матч 2012 / Торонто (Канада) - Ливерпуль (Англия) / TV [Футбол ...
  • Товарищеский матч / Аргентина-США / ESPN [22.07.2012, Баскетбол, WEB-DL HD/ ...
  • Товарищеский матч 2012 / Швеция - Англия / ITV1 HD [Футбол, 14.11.2012, HD, ...
  • Чемпионат Испании 2011-12 / 35-й тур / Барселона - Реал М / НТВ+ [Футбол, 2 ...
  • Товарищеский матч 2012 / Аргентина - Бразилия / Спорт 1 [Футбол, 09.06.2012 ...
  • Товарищеский матч 2012 / Звезды мирового футбола в Майами / "Друзья Месси" ...
  • Товарищеский матч 2012 / АмаЗулу (ЮАР) - Манчестер Юнайтед (Англия) / MU TV ...
  • Товарищеский матч 2012 / Аякс Кейптаун (ЮАР) - Манчестер Юнайтед (Англия) / ...
  • Товарищеский матч / Звёзды Малайзии - Манчестер Сити / ТК Футбол [Футбол, 2 ...
  • Товарищеский матч 2012 / Манчестер Юнайтед - Барселона / Футбол [Футбол, 08 ...
  • Товарищеский матч 2012 / Ганновер (Германия) - Манчестер Юнайтед (Англия) / ...
  • Олимпиада 2012 / Мужчины/ Матч за 3-е место / Аргентина — Россия [Баскетбо ...
  • Информация
    Посетители, находящиеся в группе Гости, не могут оставлять комментарии к данной публикации.