вход на сайт

Имя пользователя :
Пароль :

Восстановление пароля Регистрация
Лига Чемпионов 2011-12 / 1/2 финала / Ответный матч / Реал Мадрид (Испания) - Бавария (Германия) / НТВ+ [Футбол, 25.04.2012, SATRip, RU(В. Уткин)]
Рейтинг:
(голосов: 1)



[img]{THEME}/images/logopost.png[/img]




Лига Чемпионов 2011-12 1/2 финала.
Ответный матч


Вид спорта: Футбол
Год выпуска: 25.04.2012
Язык комментариев: Русский (В. Уткин)
Участники: Реал Мадрид (Испания) - Бавария (Германия)
Описание: Предлагаю вашему вниманию ответный матч 1/2 финала Лиги Чемпионов 2011-12
Составы команд ▼ Счет матча ▼2-1
Качество: SATRip
Продолжительность ▼02:17:36
Формат: AVI
Видео кодек: XviD
Аудио кодек: MP3
Свойства видео: 704x400 (16:9), 25 fps, 1800 kbps
Свойства аудио: 48 kHz, 2 ch, 128.00 kbps
Тех. описание ▼
Format : AVI
Format/Info : Audio Video Interleave
File size : 696 MiB
Duration : 50mn 16s
Overall bit rate : 1 936 Kbps
Writing library : VirtualDub build 32817/release

Video
ID : 0
Format : MPEG-4 Visual
Format profile : Advanced [email protected]
Format settings, BVOP : 2
Format settings, QPel : No
Format settings, GMC : No warppoints
Format settings, Matrix : Default (H.263)
Codec ID : XVID
Codec ID/Hint : XviD
Duration : 50mn 16s
Bit rate : 1 799 Kbps
Width : 704 pixels
Height : 400 pixels
Display aspect ratio : 16:9
Frame rate : 25.000 fps
Color space : YUV
Chroma subsampling : 4:2:0
Bit depth : 8 bits
Scan type : Progressive
Compression mode : Lossy
Bits/(Pixel*Frame) : 0.255
Stream size : 647 MiB (93%)
Writing library : XviD 1.2.1 (UTC 2008-12-04)

Audio
ID : 1
Format : MPEG Audio
Format version : Version 1
Format profile : Layer 3
Codec ID : 55
Codec ID/Hint : MP3
Duration : 50mn 16s
Bit rate mode : Constant
Bit rate : 128 Kbps
Channel(s) : 2 channels
Sampling rate : 48.0 KHz
Compression mode : Lossy
Delay relative to video : 8ms
Stream size : 46.0 MiB (7%)
Alignment : Split accross interleaves
Interleave, duration : 40 ms (1.00 video frame)
Interleave, preload duration : 500 ms

Стол заказов POWER | Отзывы | Вступление в POWER
Мои раздачи


281732cc500f069d6dc140ab5b0dc77fd0ba2469Лига Чемпионов 2011-12 / 1/2 финала / Ответный матч / Реал Мадрид (Испания) - Бавария (Германия) / НТВ+ [Футбол, 25.04.2012, SATRip, RU(В. Уткин)] Лига Чемпионов 2011-12 / 1/2 финала / Ответный матч / Реал Мадрид (Испания) - Бавария (Германия) / НТВ+ [Футбол, 25.04.2012, SATRip, RU(В. Уткин)] " />

Аплоадер: Админ, дата: 26-04-2012, 04:17, торрент скачан: 359 раз

Понравилась раздача? Посмотрите эти:
  • Лига Чемпионов 2012-13 / 1/2 Финала / Первый Матч / Бавария (Германия) — Ба ...
  • Лига Чемпионов 2012-13 / 1/2 Финала / Первый Матч / Боруссия Д (Германия) — ...
  • Лига Чемпионов 2012-13 / 1/2 Финала / Ответный матч / Реал Мадрид (Испания) ...
  • Лига Чемпионов 2012-13 / 1/2 финала / Ответный матч / Реал Мадрид (Испания) ...
  • Лига Чемпионов 2012-13 / 1/2 финала / Ответный матч + Превью / Реал Мадрид ...
  • Лига Чемпионов 2012-13 / 1/2 финала / Ответный матч / Реал Мадрид (Испания) ...
  • Лига Чемпионов 2012-13 / 1/2 финала / Ответный матч / Реал Мадрид (Испания) ...
  • Лига Чемпионов 2012-13 / 1/2 финала / Ответный матч / Реал Мадрид (Испания) ...
  • Лига Чемпионов 2012-13 / 1/2 Финала / Ответный матч / Барселона (Испания) ...
  • Лига Чемпионов 2012-13 / 1/4 финала / Ответный матч / Галатасарай (Турция) ...
  • Лига Чемпионов 2012-13 / 1/4 финала / Ответный Матч / Галатасарай (Турция) ...
  • Лига Чемпионов 2012-13 / 1/4 финала / Ответный матч / Ювентус (Италия) - Ба ...
  • Лига Чемпионов 2008-2009 / 1/8 финала / ответный матч / Ливерпуль (Англия) ...
  • Лига Чемпионов 2012-13 / 1/8 финала / Ответный матч / Манчестер Юнайтед (Ма ...
  • Лига Чемпионов 2011-12 / 1/4 финала / Ответный матч / Реал М (Испания) - АП ...
  • Лига Чемпионов 2006-07 / 1/8 финала / Ответный матч / Бавария Мюнхен - Реа ...
  • Лига Чемпионов 2011-12 / 1/2 финала / Первый матч / Бавария (Германия) - Ре ...
  • Лига Чемпионов 2011-12 / 1/2 финала / Ответный матч / Барселона (Испания) - ...
  • Лига Чемпионов 2011-12 / 1/2 финала / Ответный матч / Реал Мадрид – Бавария ...
  • Лига Чемпионов 2011-12 / 1/2 финала / Ответный матч / Реал (Испания) - Бава ...
  • Информация
    Посетители, находящиеся в группе Гости, не могут оставлять комментарии к данной публикации.