вход на сайт

Имя пользователя :
Пароль :

Восстановление пароля Регистрация
Лига Чемпионов 2011-12 / 1/2 финала / Ответный матч / Реал Мадрид – Бавария [Футбол, 25.04.2012. SATRip]
Рейтинг:
(голосов: 1)



[img]{THEME}/images/logopost.png[/img]



Лига Чемпионов 2011-12 / 1/2 финала / Ответный матч / Реал Мадрид – Бавария

Вид спорта:: футбол
Год выпуска: 25.04.2012
Язык комментариев: Русский (Уткин)
Участники/ Состав команд: Реал Мадрид (Испания) – Бавария (Германия)

Описание: Ответный полуфинальный матч Лиги Чемпионов УЕФА,сезона 2011-2012 между Реал Мадрид (Испания) – Бавария (Германия)

Качество:SATRip
Продолжительность: 01:36:45


Формат: AVI
Видео кодек:XviD
Аудио кодек: MP3
Свойства видео: 704х400, 25 fps, ~1,8 Mbps
Свойства аудио: 48KHz, 2 ch, 128 Kbps
Медиа инфо ▼D:Çàêà÷êèË× . Ðåàë - Áàâàðèÿ1.avi
General
Complete name : D:Çàêà÷êèË× . Ðåàë - Áàâàðèÿ1.avi
Format : AVI
Format/Info : Audio Video Interleave
File size : 696 MiB
Duration : 50mn 16s
Overall bit rate : 1 936 Kbps
Writing library : VirtualDub build 32817/release
Video #0
ID : 0
Format : MPEG-4 Visual
Format profile : Advanced [email protected]
Format settings, BVOP : 2
Format settings, QPel : No
Format settings, GMC : No warppoints
Format settings, Matrix : Default (H.263)
Codec ID : XVID
Codec ID/Hint : XviD
Duration : 50mn 16s
Bit rate : 1 799 Kbps
Width : 704 pixels
Height : 400 pixels
Display aspect ratio : 16:9
Frame rate : 25.000 fps
Color space : YUV
Chroma subsampling : 4:2:0
Bit depth : 8 bits
Scan type : Progressive
Compression mode : Lossy
Bits/(Pixel*Frame) : 0.255
Stream size : 647 MiB (93%)
Writing library : XviD 1.2.1 (UTC 2008-12-04)
Audio #1
ID : 1
Format : MPEG Audio
Format version : Version 1
Format profile : Layer 3
Codec ID : 55
Codec ID/Hint : MP3
Duration : 50mn 16s
Bit rate mode : Constant
Bit rate : 128 Kbps
Channel(s) : 2 channels
Sampling rate : 48.0 KHz
Compression mode : Lossy
Delay relative to video : 8ms
Stream size : 46.0 MiB (7%)
Alignment : Split accross interleaves
Interleave, duration : 40 ms (1.00 video frame)
Interleave, preload duration : 500 ms


7741460653421242c87e9e57c635e5d70c99158dЛига Чемпионов 2011-12 / 1/2 финала / Ответный матч / Реал Мадрид – Бавария [Футбол, 25.04.2012. SATRip] Лига Чемпионов 2011-12 / 1/2 финала / Ответный матч / Реал Мадрид – Бавария [Футбол, 25.04.2012. SATRip] " />

Аплоадер: Админ, дата: 26-04-2012, 04:11, торрент скачан: 359 раз

Понравилась раздача? Посмотрите эти:
  • Лига Чемпионов 2012-13 / 1/2 Финала / Первый Матч / Бавария (Германия) — Ба ...
  • Лига Чемпионов 2012-13 / 1/2 финала / Первый Матч / Боруссия Д (Германия) — ...
  • Лига Чемпионов 2012-13 / 1/2 Финала / Первый Матч / Боруссия Д (Германия) — ...
  • Лига Чемпионов 2012-13 / 1/2 Финала / Ответный матч / Реал Мадрид (Испания) ...
  • Лига Чемпионов 2012-13 / 1/2 финала / Ответный матч / Реал Мадрид (Испания) ...
  • Лига Чемпионов 2012-13 / 1/2 финала / Ответный матч + Превью / Реал Мадрид ...
  • Лига Чемпионов 2012-13 / 1/2 финала / Ответный матч / Реал Мадрид (Испания) ...
  • Лига Чемпионов 2012-13 / 1/2 финала / Ответный матч / Реал Мадрид (Испания) ...
  • Лига Чемпионов 2012-13 / 1/2 финала / Ответный матч / Реал Мадрид (Испания) ...
  • Лига Чемпионов 2012-2013 / 1/2 финала / Ответный матч / Обзор / НТВ+ [30.04 ...
  • Лига Чемпионов 2012-13 / 1/4 финала / Ответный матч / Галатасарай (Турция) ...
  • Лига Чемпионов 2012-13 / 1/4 финала / Ответный матч / Галатасарай (Турция) ...
  • Лига Чемпионов 2012-13 / 1/4 финала / Ответный Матч / Галатасарай (Турция) ...
  • Лига Чемпионов 2012-13 / 1/4 финала / Ответный матч / Ювентус (Италия) - Ба ...
  • Лига Чемпионов 2012-13 / 1/4 финала / Ответный матч / Ювентус (Италия) - Ба ...
  • Лига Чемпионов 2008-2009 / 1/8 финала / ответный матч / Ливерпуль (Англия) ...
  • Лига Чемпионов 2012-13 / 1/4 финала / Первый матч / Реал Мадрид (Испания) - ...
  • Лига Чемпионов 2012-2013 / 1/8 финала / Ответный матч / Манчестер Юнайтед ( ...
  • Лига Чемпионов 2012-13 / 1/8 финала / Ответный матч / Манчестер Юнайтед (Ма ...
  • Лига Чемпионов 2012-13 / 1/8 финала / 1-й матч / Реал Мадрид (Испания) - Ма ...
  • Лига Чемпионов 2011-12 / 1/4 финала / Ответный матч / Реал М (Испания) - АП ...
  • Лига Чемпионов 2006-07 / 1/8 финала / Ответный матч / Бавария Мюнхен - Реа ...
  • Лига Чемпионов 2011-12 / 1/2 финала / Первый матч / Бавария (Германия) - Ре ...
  • Лига Чемпионов 2011-12 / 1/2 финала / Ответный матч / Реал Мадрид (Испания) ...
  • Лига Чемпионов 2011-12 / 1/2 финала / Ответный матч / Реал (Испания) - Бава ...
  • Информация
    Посетители, находящиеся в группе Гости, не могут оставлять комментарии к данной публикации.