вход на сайт

Имя пользователя :
Пароль :

Восстановление пароля Регистрация
Лига Чемпионов 2011-12 / 1/2 финала / Ответный матч / Барселона (Испания) - Челси (Англия) / НТВ+ [Футбол, 24.04.2012, SD, XviD, RU, SAT]
Рейтинг:
(голосов: 1)



[img]{THEME}/images/logopost.png[/img]




Лига Чемпионов 2011-12 1/2 финала
Ответный матч. НТВ + Футбол 2


Вид спорта: Футбол
Год выпуска: 24.04.2012
Язык комментариев: Русский (Шмурнов)
Участники: Барселона (Испания) - Челси (Англия)
Описание: Предлагаю вашему вниманию ответный матч 1/2 финала Лиги Чемпионов 2011-12
Счет матча ▼2-2
Качество: SATRip
Продолжительность ▼01:51:28
Формат: AVI
Видео кодек: XviD
Аудио кодек: MP3
Свойства видео: 704x400 (16:9), 25 fps, 1800 kbps
Свойства аудио: 48 kHz, 2 ch, 128.00 kbps
Тех. данные ▼
Format : AVI
Format/Info : Audio Video Interleave
File size : 838 MiB
Duration : 1h 0mn
Overall bit rate : 1 930 Kbps

Video
ID : 0
Format : MPEG-4 Visual
Format profile : Advanced [email protected]
Format settings, BVOP : 2
Format settings, QPel : No
Format settings, GMC : No warppoints
Format settings, Matrix : Default (H.263)
Codec ID : XVID
Codec ID/Hint : XviD
Duration : 1h 0mn
Bit rate : 1 717 Kbps
Width : 704 pixels
Height : 400 pixels
Display aspect ratio : 16:9
Frame rate : 25.000 fps
Color space : YUV
Chroma subsampling : 4:2:0
Bit depth : 8 bits
Scan type : Progressive
Compression mode : Lossy
Bits/(Pixel*Frame) : 0.244
Stream size : 745 MiB (89%)
Writing library : XviD 1.2.1 (UTC 2008-12-04)

Audio
ID : 1
Format : MPEG Audio
Format version : Version 1
Format profile : Layer 3
Codec ID : 55
Codec ID/Hint : MP3
Duration : 1h 0mn
Bit rate mode : Constant
Bit rate : 128 Kbps
Channel(s) : 2 channels
Sampling rate : 48.0 KHz
Compression mode : Lossy
Stream size : 55.5 MiB (7%)
Alignment : Aligned on interleaves


Стол заказов POWER | Отзывы | Вступление в POWER
Мои раздачи


a5807a693e38de914044544216c5055bad15bef5Лига Чемпионов 2011-12 / 1/2 финала / Ответный матч / Барселона (Испания) - Челси (Англия) / НТВ+ [Футбол, 24.04.2012, SD, XviD, RU, SAT] Лига Чемпионов 2011-12 / 1/2 финала / Ответный матч / Барселона (Испания) - Челси (Англия) / НТВ+ [Футбол, 24.04.2012, SD, XviD, RU, SAT] " />

Аплоадер: Админ, дата: 25-04-2012, 03:10, торрент скачан: 359 раз

Понравилась раздача? Посмотрите эти:
  • Лига Чемпионов 2012-13 / 1/2 Финала / Первый Матч / Бавария (Германия) — Ба ...
  • Лига Чемпионов 2012-13 / 1/2 Финала / Ответный матч / Барселона (Испания) ...
  • Лига Чемпионов 2012-13 / 1/2 финала / Ответный матч / + Превью / Барселона ...
  • Лига Чемпионов 2012-13 / 1/2 Финала / Ответный матч / Барселона (Испания) — ...
  • Лига Чемпионов 2012-13 / 1/4 финала / Ответный матч / Барселона (Испания) - ...
  • Лига Чемпионов 2012-13 / 1/4 финала / Ответный матч / Барселона (Испания) — ...
  • Лига Чемпионов 2008-2009 / 1/8 финала / ответный матч / Ливерпуль (Англия) ...
  • Лига Чемпионов 2012-13 / 1/8 финала / Ответный Матч / Барселона (Испания) ...
  • Лига Чемпионов 2012-2013 / 1/8 финала / Ответный матч / Манчестер Юнайтед ( ...
  • Лига Чемпионов 2012-13 / 1/8 финала / Ответный матч / Манчестер Юнайтед (Ма ...
  • Лига Чемпионов 2008-09 / 1/4 Финала / Ответный матч / Челси (Лондон, Англия ...
  • Лига Чемпионов 2008-09 / 1/2 финала, ответный матч / Челси - Барселона / НТ ...
  • Лига Чемпионов 2011-12 / 1/2 финала / Ответный матч / Барселона (Испания) - ...
  • Лига чемпионов 2009-10 / 1/4 финала / Ответный матч / Барселона (Испания) - ...
  • Лига Чемпионов 2008-09 / 1/2 Финала /Ответный матч / Челси - Барселона [200 ...
  • Лига Чемпионов 2009-10 / 1/2 финала / Ответный матч / Барселона (Испания) ...
  • Лига Чемпионов 2011-12 / 1/8 финала / Ответный матч / Барселона (Испания) - ...
  • Лига Чемпионов 2011-12 / 1/8 финала / Ответный матч / Челси (Англия) - Напо ...
  • Лига Чемпионов 2011-12 / 1/4 финала / Ответный матч / Барселона (Испания) ...
  • Лига Чемпионов 2011-12 / 1/4 финала / Ответный матч / Реал М (Испания) - АП ...
  • Лига Чемпионов 2011-12 / 1/4 финала / Ответный матч / Челси (Англия) - Бенф ...
  • Лига Чемпионов 2011-12 / 1/2 финала / Первый матч / Челси (Англия) - Барсел ...
  • Лига Чемпионов 2011-12 / 1/2 финала / Первый матч / Челси (Англия) - Барсел ...
  • Лига Чемпионов 2011-12 / 1/2 финала / Ответный матч / Обзор матча / Барсело ...
  • Лига Чемпионов 2011-12 / 1/2 финала / Ответный матч / Реал Мадрид (Испания) ...
  • Информация
    Посетители, находящиеся в группе Гости, не могут оставлять комментарии к данной публикации.