вход на сайт

Имя пользователя :
Пароль :

Восстановление пароля Регистрация
Чемпионат Англии 2011-2012 / Championship / 45-й Тур / Обзор Матчей / НТВ+ [Футбол, 23.04.2011 г., SD, XviD, RU, SAT]
Рейтинг:
(голосов: 1)



[img]{THEME}/images/logopost.png[/img]



Чемпионат Англии 2011-12
Championship
Обзор 45-го тура.

Вид спорта: Футбол
Год выпуска: 23.04.2012
Язык комментариев: Русский (Артем Шмельков)
Участники: Футбольные команды чемпионата Англии (Championship)
Описание: Чемпионат Англии, дивизиона Championship 2011-12. Обзор 45-го тура
Качество: SATRip
Продолжительность ▼00:26:10
Формат: AVI
Видео кодек: XviD
Аудио кодек: MP3
Свойства видео: 704x400 (16:9), 25 fps, 1800 kbps
Свойства аудио: 48 kHz, MPEG Layer 3, 2 ch, 128.00 kbps avg
Тех. описание ▼
ФFormat : AVI
Format/Info : Audio Video Interleave
File size : 362 MiB
Duration : 26mn 10s
Overall bit rate : 1 934 Kbps
Writing library : VirtualDub build 34703/release

Video
ID : 0
Format : MPEG-4 Visual
Format profile : Advanced [email protected]
Format settings, BVOP : 2
Format settings, QPel : No
Format settings, GMC : No warppoints
Format settings, Matrix : Default (MPEG)
Codec ID : XVID
Codec ID/Hint : XviD
Duration : 26mn 10s
Bit rate : 1 796 Kbps
Width : 704 pixels
Height : 400 pixels
Display aspect ratio : 16:9
Frame rate : 25.000 fps
Color space : YUV
Chroma subsampling : 4:2:0
Bit depth : 8 bits
Scan type : Progressive
Compression mode : Lossy
Bits/(Pixel*Frame) : 0.255
Stream size : 336 MiB (93%)
Writing library : XviD 1.2.1 (UTC 2008-12-04)

Audio
ID : 1
Format : MPEG Audio
Format version : Version 1
Format profile : Layer 3
Mode : Joint stereo
Mode extension : MS Stereo
Codec ID : 55
Codec ID/Hint : MP3
Duration : 26mn 10s
Bit rate mode : Constant
Bit rate : 128 Kbps
Channel(s) : 2 channels
Sampling rate : 48.0 KHz
Compression mode : Lossy
Stream size : 24.0 MiB (7%)
Alignment : Split accross interleaves
Interleave, duration : 40 ms (1.00 video frame)
Interleave, preload duration : 500 ms


Стол заказов POWER | Отзывы | Вступление в POWER
Мои раздачи


47e27552c8438199506818353a3eb733a47f4777Чемпионат Англии 2011-2012 / Championship / 45-й Тур / Обзор Матчей / НТВ+ [Футбол, 23.04.2011 г., SD, XviD, RU, SAT] Чемпионат Англии 2011-2012 / Championship / 45-й Тур / Обзор Матчей / НТВ+ [Футбол, 23.04.2011 г., SD, XviD, RU, SAT] " />

Аплоадер: Админ, дата: 24-04-2012, 00:53, торрент скачан: 359 раз

Понравилась раздача? Посмотрите эти:
  • Чемпионат Англии 2013-14 / 3-й тур / Обзор матчей / НТВ+ [Футбол, 03.09.201 ...
  • Чемпионат Англии 2012-13 / 36-й тур / Обзор матчей субботы / Match Of The D ...
  • Чемпионат Англии 2012-13 / 36-й тур / Обзор матчей воскресенья / Match Of T ...
  • Чемпионат Германии 2012-2013 / 32-й тур / Обзор матчей / Футбол + (UA) [06. ...
  • Чемпионат Англии 2012-13 / 35-й тур / Обзор матчей субботы / Match Of The D ...
  • Чемпионат Англии 2012-13 / 35-й тур / Обзор матчей воскресенья / Match Of T ...
  • Чемпионат Англии 2012-2013 / 32-й тур / Обзор Матчей / Спорт 1 [Футбол, 08. ...
  • Чемпионат Англии 2012-2013 / 31-й тур / Обзор Матчей / Спорт 1 [Футбол, 02. ...
  • Чемпионат Англии 2011-12 / 36 тур / Челси - Куинз Парк Рейнджерс / Спорт 1 ...
  • Чемпионат Англии 2012-13 / 9-й тур / Обзор матчей / ВВС One [Футбол, 27-28. ...
  • Чемпионат Англии 2012-13 / 11-й тур / Челси - Ливерпуль / Футбол [Футбол, 1 ...
  • Чемпионат Италии 2012-13 / 16-й тур / Обзор матчей / НТВ+ [Футбол, 11.12.20 ...
  • Чемпионат Англии 2011-2012 / Обзор матчей 28 тура / Спорт 1 [2012 г., футбо ...
  • Чемпионат Англии 2011-12 / 31 тур / Ньюкасл - Ливерпуль / Спорт 1 [Футбол, ...
  • Чемпионат Англии 2011-2012 / Обзор матчей 31 тура / Спорт 1 [Футбол, 02.04. ...
  • Чемпионат Англии 2011-12 / 32 тур / Манчестер Юнайтед - Куинз Парк Рейнджер ...
  • Чемпионат Англии 2011-12 / 32 тур / Арсенал - Манчестер Сити / Спорт 1 [Фут ...
  • Чемпионат Англии 2011-12 / 32-й тур / Обзор тура / Спорт 1 [Футбол, 10.04.2 ...
  • Чемпионат Англии 2011-12 / 35 тур / Манчестер Юнайтед - Эвертон / Спорт 1 [ ...
  • Чемпионат Англии 2011-12 / 37-й тур / Манчестер Юнайтед - Суонси Сити / Спо ...
  • Чемпионат Англии 2012-2013 | 2-й тур | Обзор Матчей | Футбол [Футбол, 27.08 ...
  • Чемпионат Италии 2012-13 | 2-й тур | Обзор матчей | НТВ+ [Футбол, 03.09.201 ...
  • Чемпионат Англии 2012-13 | 3-й тур | Обзор тура | Спорт 1 [Футбол, 03.09.20 ...
  • Чемпионат Испании 2012-13 | 5-й тур | Обзор матчей | НТВ+ [Футбол, 24.09.20 ...
  • Чемпионат Англии 2012-13 / 8-й тур / Обзор матчей / Спорт1 [Футбол, 22.10.2 ...
  • Информация
    Посетители, находящиеся в группе Гости, не могут оставлять комментарии к данной публикации.