вход на сайт

Имя пользователя :
Пароль :

Восстановление пароля Регистрация
Чемпионат Англии 2011-12 / 35 тур / Манчестер Юнайтед - Эвертон / Спорт 1 [Футбол, 22.04.2012, HDTVRip, RU]
Рейтинг:
(голосов: 1)



[img]{THEME}/images/logopost.png[/img]



Чемпионат Англии 2011-12
35-й тур


Вид спорта: Футбол
Год выпуска: 22.04.2012
Язык комментариев: Русский (Александр Неценко)
Участники: Манчестер Юнайтед - Эвертон
Описание: Чемпионат Англии 2011-12, 35-й тур. Главный судья: Майк Джонс (Честер, Англия)
Составы команд ▼
Протокол матча ▼
Качество: HDRip
Продолжительность ▼00:58:14 + 00:51:55
Формат: AVI
Видео кодек: XviD
Аудио кодек: MP3
Свойства видео: 704x400 (1.76:1), 25 fps, XviD MPEG-4 ~1800 kbps avg, 0.25 bit/pixel
Свойства аудио: 48 kHz, MPEG Layer 3, 2 ch, ~128.00 kbps avg
Тех. описание ▼
Format : AVI
Format/Info : Audio Video Interleave
File size : 806 MiB
Duration : 58mn 14s
Overall bit rate : 1 936 Kbps
Writing library : TMPGEnc 4.0 XPress Version. 4.7.7.307

Video
ID : 0
Format : MPEG-4 Visual
Format profile : Advanced [email protected]
Format settings, BVOP : 2
Format settings, QPel : No
Format settings, GMC : No warppoints
Format settings, Matrix : Default (MPEG)
Muxing mode : Packed bitstream
Codec ID : XVID
Codec ID/Hint : XviD
Duration : 58mn 14s
Bit rate : 1 800 Kbps
Width : 704 pixels
Height : 400 pixels
Display aspect ratio : 16:9
Frame rate : 25.000 fps
Color space : YUV
Chroma subsampling : 4:2:0
Bit depth : 8 bits
Scan type : Progressive
Compression mode : Lossy
Bits/(Pixel*Frame) : 0.256
Stream size : 750 MiB (93%)
Writing library : XviD 1.2.1 (UTC 2008-12-04)

Audio
ID : 1
Format : MPEG Audio
Format version : Version 1
Format profile : Layer 3
Mode : Joint stereo
Mode extension : MS Stereo
Codec ID : 55
Codec ID/Hint : MP3
Duration : 58mn 14s
Bit rate mode : Constant
Bit rate : 128 Kbps
Channel(s) : 2 channels
Sampling rate : 48.0 KHz
Compression mode : Lossy
Stream size : 53.3 MiB (7%)
Alignment : Aligned on interleaves
Interleave, duration : 250 ms (6.25 video frames)
Interleave, preload duration : 192 ms


Стол заказов POWER | Отзывы | Вступление в POWER
Мои раздачи


6f7316b9fa4d28397dde3c5d6a102d1d08fd243dЧемпионат Англии 2011-12 / 35 тур / Манчестер Юнайтед - Эвертон / Спорт 1 [Футбол, 22.04.2012, HDTVRip, RU] Чемпионат Англии 2011-12 / 35 тур / Манчестер Юнайтед - Эвертон / Спорт 1 [Футбол, 22.04.2012, HDTVRip, RU] " />

Аплоадер: Админ, дата: 22-04-2012, 20:46, торрент скачан: 359 раз

Понравилась раздача? Посмотрите эти:
  • Чемпионат Англии 2012-2013 / 36 тур / Манчестер Юнайтед - Челси / Спорт 1 [ ...
  • Чемпионат Англии 2012-2013 / 35 тур / Арсенал - Манчестер Юнайтед / Спорт 1 ...
  • Чемпионат Англии 2012-2013 / 32 тур / Манчестер Юнайтед — Манчестер Сити / ...
  • Чемпионат Англии 2012-13 / 24-й Тур / Манчестер Юнайтед - Саутгемптон / Спо ...
  • Чемпионат Англии 2011-12 / 25-й тур / Манчестер Юнайтед - Ливерпуль / Спорт ...
  • Чемпионат Англии 2011-12 / 36 тур / Челси - Куинз Парк Рейнджерс / Спорт 1 ...
  • Чемпионат Англии 2012-2013 / 5-й тур / Ливерпуль - Манчестер Юнайтед / Спор ...
  • Чемпионат Англии 2012-13 / 10 тур / Манчестер Юнайтед - Арсенал / Спорт 1 H ...
  • Чемпионат Англии 2012-13 / 16-й тур / Манчестер Сити — Манчестер Юнайтед / ...
  • Чемпионат Англии 2012-2013 / 22-й тур / Манчестер Юнайтед (Манчестер) - Лив ...
  • Чемпионат Англии 2012-2013 / 22-й тур / Манчестер Юнайтед - Ливерпуль / Спо ...
  • Чемпионат Англии 2012-13 / 16 тур / Манчестер Сити - Манчестер Юнайтед / С ...
  • Чемпионат Англии 2012-2013 / 18-й тур / Суонси Сити - Манчестер Юнайтед / ...
  • Чемпионат Англии 2011-12 / 31 тур / Ньюкасл - Ливерпуль / Спорт 1 [Футбол, ...
  • Чемпионат Англии 2011-12 / 32 тур / Манчестер Юнайтед - Куинз Парк Рейнджер ...
  • Чемпионат Англии 2011-12 / 32 тур / Арсенал - Манчестер Сити / Спорт 1 [Фут ...
  • Чемпионат Англии / Сезон 2011-2012 / 36-й тур / Манчестер Сити - Манчестер ...
  • Чемпионат Англии 2011-12 / 37-й тур / Манчестер Юнайтед - Суонси Сити / Спо ...
  • Чемпионат Англии 2012-13 / 1-й тур / Эвертон - Манчестер Юнайтед / Спорт 1 ...
  • Чемпионат Англии 2012-13 /9 тур/ Челси-Манчестер Юнайтед / Спорт 1 HD [фу ...
  • Информация
    Посетители, находящиеся в группе Гости, не могут оставлять комментарии к данной публикации.