вход на сайт

Имя пользователя :
Пароль :

Восстановление пароля Регистрация
Чемпионат Испании 2011-12 / 35-й тур / Барселона - Реал М / НТВ+ [Футбол, 21.04.2012, IPTV, RU]
Рейтинг:
(голосов: 1)



[img]{THEME}/images/logopost.png[/img]



Чемпионат Испании 2011-12
35-й тур

Вид спорта: Футбол
Год выпуска: 21.04.2012
Язык комментариев: Русский (В. Уткин)
Участники: Барселона - Реал Мадрид
Описание: Чемпионат Испании 2011-12, 35-й тур
Составы команд ▼Счет матча ▼
Качество: IPTV
Продолжительность ▼00:49:27 + 00:54:52
Формат: MPG
Видео кодек: MPEG2
Аудио кодек: MP2
Свойства видео: MPEG-2 ([email protected]) 16:9, 25.000 fps, ~3 693 Kbps
Свойства аудио: 48 kHz, MPEG Layer 2, 2 ch, ~192.00 kbps avg
Тех. описание ▼Format : MPEG-PS
File size : 1.37 GiB
Duration : 49mn 27s
Overall bit rate mode : Variable
Overall bit rate : 3 962 Kbps

Video
ID : 224 (0xE0)
Format : MPEG Video
Format version : Version 2
Format profile : [email protected]
Format settings, BVOP : Yes
Format settings, Matrix : Custom
Format settings, GOP : M=3, N=24
Duration : 49mn 26s
Bit rate mode : Variable
Bit rate : 3 691 Kbps
Maximum bit rate : 15.0 Mbps
Width : 704 pixels
Height : 576 pixels
Display aspect ratio : 16:9
Frame rate : 25.000 fps
Standard : PAL
Color space : YUV
Chroma subsampling : 4:2:0
Bit depth : 8 bits
Scan type : Interlaced
Scan order : Top Field First
Compression mode : Lossy
Bits/(Pixel*Frame) : 0.364
Stream size : 1.27 GiB (93%)

Audio
ID : 192 (0xC0)
Format : MPEG Audio
Format version : Version 1
Format profile : Layer 2
Duration : 49mn 27s
Bit rate mode : Constant
Bit rate : 192 Kbps
Channel(s) : 2 channels
Sampling rate : 48.0 KHz
Compression mode : Lossy
Delay relative to video : -665ms
Stream size : 67.9 MiB (5%)


Стол заказов POWER | Отзывы | Вступление в POWER
Мои раздачи


634905b2dda08640d45ad21448de0cc8e713b704Чемпионат Испании 2011-12 / 35-й тур / Барселона - Реал М / НТВ+ [Футбол, 21.04.2012, IPTV, RU] Чемпионат Испании 2011-12 / 35-й тур / Барселона - Реал М / НТВ+ [Футбол, 21.04.2012, IPTV, RU] " />

Аплоадер: Админ, дата: 22-04-2012, 02:51, торрент скачан: 359 раз

Понравилась раздача? Посмотрите эти:
  • Чемпионат Испании 2013-2014 / 19-й тур / Атлетико Мадрид - Барселона / НТВ+ ...
  • Чемпионат Испании 2013-2014 / 14-й тур / Барселона - Гранада / НТВ+ [футбол ...
  • Чемпионат Испании 2013-2014 / 6-й тур / Барселона - Реал Сосьедад / НТВ+ [ф ...
  • Чемпионат Испании 2013-14 / 8-й тур / Леванте - Реал Мадрид / НТВ+ [футбол, ...
  • Чемпионат Испании 2012-13 / 37-й тур / Реал Сосьедад — Реал Мадрид / НТВ+ ...
  • Чемпионат Испании 2012-13 / 34-й тур / Реал Мадрид - Вальядолид / НТВ+ [04. ...
  • Чемпионат Испании 2012-2013 / 26-й тур / Реал Мадрид - Барселона / НТВ+ [Фу ...
  • Чемпионат Испании 2012-13 / 26-й тур / Реал М (Мадрид) - Барселона (Барсело ...
  • Чемпионат Испании 2010-2011 / 13-й тур / Барселона - Реал Мадрид / НТВ + [2 ...
  • Чемпионат Испании 2011-12 / 33-й тур / Атлетико М - Реал М / НТВ+ [Футбол, ...
  • Чемпионат Испании 2011-12 / 35-й тур / Барселона - Реал / Футбол HD [Футбол ...
  • Чемпионат Испании 2011-12 / 36-й тур / Реал Мадрид - Севилья / НТВ+ [Футбол ...
  • Чемпионат Испании 2011-12 / 20-й тур / Атлетик - Реал / НТВ+ [Футбол, 02.05 ...
  • Суперкубок Испании 2012 / Первый Матч / Барселона - Реал Мадрид / Спорт 1 H ...
  • Чемпионат Испании 2009-10 / 12-й тур / Барселона - Реал (Мадрид) / НТВ+ (Фу ...
  • Чемпионат Испании 2011-12 / 16-й тур / Эль-Классико: Реал Мадрид - Барселон ...
  • Чемпионат Испании 2011-12 / 35-й тур / Барселона - Реал Мадрид [Футбол, 21. ...
  • Суперкубок Испании 2012 | Ответный матч | Реал Мадрид - Барселона | Спорт 1 ...
  • Чемпионат Испании 2012-13 | 5-й тур | Обзор матчей | НТВ+ [Футбол, 24.09.20 ...
  • Чемпионат Испании 2012-13 / 7-й тур / Барселона - Реал Мадрид / Футбол HD [ ...
  • Информация
    Посетители, находящиеся в группе Гости, не могут оставлять комментарии к данной публикации.