вход на сайт

Имя пользователя :
Пароль :

Восстановление пароля Регистрация
Лига Европы 2011-12 / 1/2 Финала / Первые Матчи / Обзор Матчей в Студии / НТВ+ [Футбол,19.04.2012, HDTVRip, RU]
Рейтинг:
(голосов: 1)



[img]{THEME}/images/logopost.png[/img]



Лига Европы 2011-12 / 1/2 Финала / Первые Матчи
Обзор Матчей в Студии

Вид спорта: Футбол
Год выпуска: 20.04.2012
Язык комментариев: Русский (Мельников, Казанский, Поленов )
Участники: Футбольные команды
Описание: Обзор первых матчей полуфинала Лиги Европы 2011-12
Качество: SATRip
Продолжительность ▼00:23:36
Формат: AVI
Видео кодек: XviD
Аудио кодек: MP3
Свойства видео: MPEG4, 720x400 (16:9), 25.000 fps, 1 771 Kbps (0.246 bit/pixel)
Свойства аудио: MP3, 48.0 KHz, 2 ch, 128 Kbps, VBR
Тех. описание ▼
Format : AVI
Format/Info : Audio Video Interleave
File size : 331 MiB
Duration : 24mn 31s
Overall bit rate mode : Variable
Overall bit rate : 1 886 Kbps
Writing application : GOM ENCODER (GAviWriter 1.0)

Video
ID : 0
Format : MPEG-4 Visual
Format profile : [email protected]
Format settings, BVOP : No
Format settings, QPel : No
Format settings, GMC : No warppoints
Format settings, Matrix : Default (H.263)
Codec ID : DX50
Codec ID/Hint : DivX 5
Duration : 24mn 31s
Bit rate : 1 771 Kbps
Width : 720 pixels
Height : 400 pixels
Display aspect ratio : 16:9
Frame rate : 25.000 fps
Color space : YUV
Chroma subsampling : 4:2:0
Bit depth : 8 bits
Scan type : Progressive
Compression mode : Lossy
Bits/(Pixel*Frame) : 0.246
Stream size : 311 MiB (94%)
Writing library : Lavc52.110.0

Audio
ID : 1
Format : MPEG Audio
Format version : Version 1
Format profile : Layer 3
Mode : Joint stereo
Mode extension : MS Stereo
Codec ID : 55
Codec ID/Hint : MP3
Duration : 24mn 31s
Bit rate mode : Variable
Bit rate : 103 Kbps
Channel(s) : 2 channels
Sampling rate : 48.0 KHz
Compression mode : Lossy
Stream size : 18.1 MiB (5%)
Alignment : Aligned on interleaves
Interleave, duration : 24 ms (0.60 video frame)
Interleave, preload duration : 163 ms



Стол заказов POWER | Отзывы | Вступление в POWER
И не забываем говорить СПАСИБО, ведь это будет вдохновлять меня на новые релизы !!!

Мои раздачи


Скачал сам - дай скачать другим! Не уходи с раздачи после скачивания!!!


3fce41ce1868d2fc512530aa3df90ce70ea78fa5Лига Европы 2011-12 / 1/2 Финала / Первые Матчи / Обзор Матчей в Студии / НТВ+ [Футбол,19.04.2012, HDTVRip, RU] Лига Европы 2011-12 / 1/2 Финала / Первые Матчи / Обзор Матчей в Студии / НТВ+ [Футбол,19.04.2012, HDTVRip, RU] " />

Аплоадер: Админ, дата: 20-04-2012, 09:25, торрент скачан: 359 раз

Понравилась раздача? Посмотрите эти:
  • Лига Европы 2013-14 / 6-й тур / Краткий обзор матчей за 12.12.2013 / НТВ+ [ ...
  • Лига Европы 2013-14 / 5-й тур / Краткий обзор матчей за 28.11.2013 / НТВ+ [ ...
  • Лига Европы 2013-2014 / Групповой этап / 5-й тур / Обзор матчей (студия) / ...
  • Лига Европы 2013-14 / 5-й тур / Обзор матчей / BT Sport 1 HD [футбол, 2013 ...
  • Лига Европы 2013-14 / 5-й тур / Обзор матчей / НТВ+ [Футбол, 29.11.2013, 72 ...
  • Лига Европы 2013-14 / 4-й тур / Обзор матчей / BT Sport 1 HD [2013 г., футб ...
  • Лига Европы 2012-2013 / 1/2 финала / первые матчи / Обзор / НТВ+ [25.04.201 ...
  • Лига Европы 2012-2013 / 1/2 финала / первые матчи / Обзор / НТВ+ [25.04.201 ...
  • Лига Чемпионов 2012-13 / 1/4 Финала / Ответные Матчи / Обзор матчей за 10.0 ...
  • Лига Европы 2012-13 / 1/4 Финала / Ответные Матчи / Краткий Обзор матчей за ...
  • Лига Чемпионов 2012-13 / 1/4 Финала / Первые Матчи / Обзор матчей за 02.04. ...
  • Лига Чемпионов 2012-13 / 1/4 Финала / Первые Матчи / Обзор матчей за 02.04. ...
  • Лига Чемпионов 2012-13 / 1/4 Финала / Первые Матчи / Обзор матчей за 03.04. ...
  • Лига Европы 2012-13 / 1/4 Финала / Первые Матчи / Краткий Обзор матчей за ...
  • Лига Европы 2012-13 / 1/4 Финала / Первые Матчи / Краткий Обзор матчей за 0 ...
  • Лига Европы 2012-13 / 1/8 Финала / Ответные Матчи / Краткий Обзор / НТВ+ [ф ...
  • Лига Чемпионов 2012-13 / 1/8 Финала / Ответные Матчи / Обзор матчей за 05. ...
  • Лига Чемпионов 2012-13 / 1/8 Финала / Ответные Матчи / Обзор матчей за 06.0 ...
  • Лига Чемпионов 2012-13 / 1/8 Финала / Первые Матчи / Обзор матчей / НТВ+ [ф ...
  • Лига Европы 2012-13 / 1/16 Финала / Ответные Матчи / Краткий Обзор матчей / ...
  • Лига Чемпионов 2010-11 / 1/8 финала / Первые матчи / Обзор матчей 15-16.02. ...
  • Лига Европы 2011-12 / 1/4 Финала / Ответные Матчи / Обзор Матчей / НТВ [Фут ...
  • Лига Европы 2011-12 / 1/2 Финала / Ответные Матчи / Обзор Матчей в Студии / ...
  • Лига Европы 2011-12 / 1/4 Финала / Первые Матчи / Обзор Матчей / НТВ [30.03 ...
  • Лига Чемпионов 2012-13 / Раунд плей-офф / Первые матчи / Обзор матчей 21.08 ...
  • Информация
    Посетители, находящиеся в группе Гости, не могут оставлять комментарии к данной публикации.