вход на сайт

Имя пользователя :
Пароль :

Восстановление пароля Регистрация
Лига Чемпионов 2011-12 / 1/2 финала / Первый матч / Челси (Англия) - Барселона (Испания) / НТВ+Футбол 2 [Футбол, 18.04.2012, SATRip, RU (Юрий Розанов)]
Рейтинг:
(голосов: 1)



[img]{THEME}/images/logopost.png[/img]




Лига Чемпионов 2011-12 1/2 финала
Первый матч. НТВ + Футбол 2


Вид спорта: Футбол
Год выпуска: 18.04.2012
Язык комментариев: Русский (Юрий Розанов)
Участники: Челси (Англия) - Барселона (Испания)
Описание: Предлагаю вашему вниманию первый матч 1/2 финала Лиги Чемпионов 2011-12.
Главный судья: Феликс Брых (Германия)
Составы команд ▼[/url]Счет матча ▼1-0
Качество: SATRip
Продолжительность ▼00:55:17 + 00:49:36
Формат: AVI
Видео кодек: XviD
Аудио кодек: MP3
Свойства видео: 704x400 (16:9), 25 fps, 1800 kbps
Свойства аудио: 48 kHz, 2 ch, 128.00 kbps
Тех. данные ▼
Format/Info : Audio Video Interleave
File size : 811 MiB
Duration : 55mn 17s
Overall bit rate : 2 052 Kbps
Writing application : VirtualDubMod 1.5.10.3 | www.virtualdub-fr.org || (build 2550/release)
Writing library : VirtualDubMod build 2550/release

Video
ID : 0
Format : MPEG-4 Visual
Format profile : [email protected]
Format settings, BVOP : No
Format settings, QPel : No
Format settings, GMC : No warppoints
Format settings, Matrix : Default (H.263)
Codec ID : XVID
Codec ID/Hint : XviD
Duration : 55mn 17s
Bit rate : 1 770 Kbps
Width : 704 pixels
Height : 400 pixels
Display aspect ratio : 16:9
Frame rate : 25.000 fps
Color space : YUV
Chroma subsampling : 4:2:0
Bit depth : 8 bits
Scan type : Progressive
Compression mode : Lossy
Bits/(Pixel*Frame) : 0.251
Stream size : 700 MiB (86%)
Writing library : Lavc52.110.0

Audio
ID : 1
Format : MPEG Audio
Format version : Version 1
Format profile : Layer 3
Mode : Joint stereo
Mode extension : MS Stereo
Codec ID : 55
Codec ID/Hint : MP3
Duration : 55mn 16s
Bit rate mode : Constant
Bit rate : 192 Kbps
Channel(s) : 2 channels
Sampling rate : 48.0 KHz
Compression mode : Lossy
Stream size : 75.9 MiB (9%)
Alignment : Split accross interleaves
Writing library : LAME3.97 (beta)


Стол заказов POWER | Отзывы | Вступление в POWER
Мои раздачи


080555a0c1669313503265fc84fe9cc116fbdc98Лига Чемпионов 2011-12 / 1/2 финала / Первый матч / Челси (Англия) - Барселона (Испания) / НТВ+Футбол 2 [Футбол, 18.04.2012, SATRip, RU (Юрий Розанов)] Лига Чемпионов 2011-12 / 1/2 финала / Первый матч / Челси (Англия) - Барселона (Испания) / НТВ+Футбол 2 [Футбол, 18.04.2012, SATRip, RU (Юрий Розанов)] " />

Аплоадер: Админ, дата: 19-04-2012, 03:01, торрент скачан: 359 раз

Понравилась раздача? Посмотрите эти:
  • Лига Чемпионов 2012-13 / 1/2 Финала / Первый Матч / Бавария (Германия) — Ба ...
  • Лига Чемпионов 2012-13 / 1/2 финала / Первый матч / Бавария (Германия) - Ба ...
  • Лига Чемпионов 2012-13 / 1/2 Финала / Первый Матч / Бавария (Германия) — Ба ...
  • Лига Чемпионов 2012-13 / 1/2 финала / Первый матч / Бавария (Германия) - Ба ...
  • Лига Чемпионов 2012-13 / 1/2 финала / Первый матч / + Превью / Бавария (Гер ...
  • Лига Чемпионов 2012-13 / 1/2 Финала / Первый Матч / Боруссия Д (Германия) — ...
  • Лига Чемпионов 2006-2007 / 1/8 финала / первый матч / Барселона (Испания) - ...
  • Лига Чемпионов 2012-13 / 1/4 финала / Ответный матч / Барселона (Испания) - ...
  • Лига Чемпионов 2012-13 / 1/4 Финала / Первый матч / ПСЖ (Франция) - Барсело ...
  • Лига Чемпионов 2012-13 / 1/4 финала / Первый матч / ПСЖ (Франция) - Барсело ...
  • Лига Чемпионов 2012-13 / 1/4 Финала / Первый Матч / ПСЖ (Франция) — Барсело ...
  • Лига Чемпионов 2012-13 / 1/8 финала / Первый матч / Милан (Милан) - Барсело ...
  • Лига чемпионов 2004-2005.1/8 финала.2 матч.Челси - Барселона [2005 г., Футб ...
  • Лига Чемпионов 2008-09 / 1/2 финала, ответный матч / Челси - Барселона / НТ ...
  • Лига Чемпионов 2011-12 / 1/2 финала / Ответный матч / Барселона (Испания) - ...
  • Лига Чемпионов 2008-09 / 1/2 Финала /Ответный матч / Челси - Барселона [200 ...
  • Лига Чемпионов 2011-12 / 1/8 финала / Ответный матч / Барселона (Испания) - ...
  • Лига Чемпионов 2011-12 / 1/8 финала / Ответный матч / Челси (Англия) - Напо ...
  • Лига Чемпионов 2011-12 / 1/4 финала / Первый матч / Милан (Италия) - Барсел ...
  • Лига Чемпионов 2011-12 / 1/4 финала / Ответный матч / Барселона (Испания) ...
  • Лига Чемпионов 2011-12 / 1/4 финала / Ответный матч / Челси (Англия) - Бенф ...
  • Лига Чемпионов 2011-12 / 1/2 финала / Первый матч / Бавария (Германия) - Ре ...
  • Лига Чемпионов 2011-12 / 1/2 финала / Первый матч / Челси (Англия) - Барсел ...
  • Лига Чемпионов 2011-12 / 1/2 финала / Ответный матч / Барселона (Испания) - ...
  • Лига Чемпионов 2011-12 / 1/2 финала / Ответный матч / Реал Мадрид (Испания) ...
  • Информация
    Посетители, находящиеся в группе Гости, не могут оставлять комментарии к данной публикации.