вход на сайт

Имя пользователя :
Пароль :

Восстановление пароля Регистрация
Лига Чемпионов 2011-12 / 1/2 финала / Первый матч / Бавария (Германия) - Реал Мадрид (Испания) / НТВ+ [Футбол, 17.04.2012, SATRip, RU]
Рейтинг:
(голосов: 1)



[img]{THEME}/images/logopost.png[/img]




Лига Чемпионов 2011-12 1/2 финала.
Первый матч


Вид спорта: Футбол
Год выпуска: 17.04.2012
Язык комментариев: Русский (Кирилл Дементьев)
Участники: Бавария (Германия) - Реал Мадрид (Испания)
Описание: Предлагаю вашему вниманию первый матч 1/2 финала Лиги Чемпионов 2011-12.
Главный судья: Ховард Уэбб (Англия)
Составы команд ▼
Счет матча ▼2-1
Качество: SATRip
Продолжительность ▼00:53:45 + 00:52:29
Формат: AVI
Видео кодек: XviD
Аудио кодек: MP3
Свойства видео: 704x400 (16:9), 25 fps, 1800 kbps
Свойства аудио: 48 kHz, 2 ch, 128.00 kbps
Тех. описание ▼
Format : AVI
Format/Info : Audio Video Interleave
File size : 789 MiB
Duration : 53mn 45s
Overall bit rate : 2 052 Kbps
Writing application : VirtualDubMod 1.5.10.3 | www.virtualdub-fr.org || (build 2550/release)
Writing library : VirtualDubMod build 2550/release

Video
ID : 0
Format : MPEG-4 Visual
Codec ID : XVID
Codec ID/Hint : XviD
Duration : 53mn 45s
Bit rate : 1 851 Kbps
Width : 704 pixels
Height : 400 pixels
Display aspect ratio : 16:9
Frame rate : 25.000 fps
Color space : YUV
Chroma subsampling : 4:2:0
Compression mode : Lossy
Bits/(Pixel*Frame) : 0.263
Stream size : 452 MiB (57%)

Audio
ID : 1
Format : MPEG Audio
Codec ID : 55
Codec ID/Hint : MP3
Duration : 53mn 44s
Bit rate : 192 Kbps
Channel(s) : 2 channels
Sampling rate : 48.0 KHz
Compression mode : Lossy
Stream size : 46.9 MiB (6%)
Alignment : Aligned on interleaves
Interleave, duration : 40 ms (1.00 video frame)
Interleave, preload duration : 500 ms


Стол заказов POWER | Отзывы | Вступление в POWER
И не забываем говорить СПАСИБО, ведь это будет вдохновлять меня на новые релизы !!!

Мои раздачи


Скачал сам - дай скачать другим! Не уходи с раздачи после скачивания!!!


ffb0851d78cc2dde3a94107fada20d1c9c93cfb5Лига Чемпионов 2011-12 / 1/2 финала / Первый матч / Бавария (Германия) - Реал Мадрид (Испания) / НТВ+ [Футбол, 17.04.2012, SATRip, RU] Лига Чемпионов 2011-12 / 1/2 финала / Первый матч / Бавария (Германия) - Реал Мадрид (Испания) / НТВ+ [Футбол, 17.04.2012, SATRip, RU] " />

Аплоадер: Админ, дата: 18-04-2012, 03:05, торрент скачан: 359 раз

Понравилась раздача? Посмотрите эти:
  • Лига Чемпионов 2012-13 / 1/2 Финала / Первый Матч / Бавария (Германия) — Ба ...
  • Лига Чемпионов 2012-13 / 1/2 финала / Первый матч / Бавария (Германия) - Ба ...
  • Лига Чемпионов 2012-13 / 1/2 финала / Первый Матч / Боруссия Д (Германия) — ...
  • Лига Чемпионов 2012-13 / 1/2 Финала / Первый Матч / Боруссия Д (Германия) — ...
  • Лига Чемпионов 2012-13 / 1/2 финала / Первый матч / Боруссия Дортмунд (Герм ...
  • Лига Чемпионов 2012-2013 / 1/2 финала / первый матч / Обзор / НТВ+ [24.04.2 ...
  • Лига Чемпионов 2012-13 / 1/2 финала / Первый матч / Боруссия Дортмунд (Герм ...
  • Лига Чемпионов 2012-13 / 1/2 Финала / Ответный матч / Реал Мадрид (Испания) ...
  • Лига Чемпионов 2012-13 / 1/2 финала / Ответный матч / Реал Мадрид (Испания) ...
  • Лига Чемпионов 2012-13 / 1/2 финала / Ответный матч + Превью / Реал Мадрид ...
  • Лига Чемпионов 2012-13 / 1/2 финала / Ответный матч / Реал Мадрид (Испания) ...
  • Лига Чемпионов 2012-13 / 1/2 финала / Ответный матч / Реал Мадрид (Испания) ...
  • Лига Чемпионов 2012-13 / 1/2 финала / Ответный матч / Реал Мадрид (Испания) ...
  • Лига Чемпионов 2012-13 / 1/4 финала / Первый матч / Реал Мадрид (Испания) - ...
  • Лига Чемпионов 2012-13 / 1/4 финала / Первый матч / Реал Мадрид (Испания) - ...
  • Лига Чемпионов 2012-13 / 1/8 финала / 1-й матч / Реал Мадрид (Испания) - Ма ...
  • Лига Чемпионов 2011-12 / 1/4 финала / Первый матч / Марсель (Франция) - Бав ...
  • Лига Чемпионов 2011-12 / 1/4 финала / Ответный матч / Реал М (Испания) - АП ...
  • Лига Чемпионов 2011-12 / 1/2 финала / Ответный матч / Реал Мадрид – Бавария ...
  • Лига Чемпионов 2011-12 / 1/2 финала / Ответный матч / Реал Мадрид (Испания) ...
  • Информация
    Посетители, находящиеся в группе Гости, не могут оставлять комментарии к данной публикации.