вход на сайт

Имя пользователя :
Пароль :

Восстановление пароля Регистрация
Чемпионат Англии 2011-12 / 32-й тур / Обзор тура / Спорт 1 [Футбол, 10.04.2012, SATRip, XviD, RU]
Рейтинг:
(голосов: 1)



[img]{THEME}/images/logopost.png[/img]



Чемпионат Англии 2011-12
Обзор 32-го тура.

Вид спорта: Футбол
Год выпуска: 10.04.2012
Язык комментариев: Русский (Виктор Рукосуев)
Участники: Футбольные команды чемпионата Англии
Описание: Чемпионат Англии 2011-12. Обзор 32-го тура
Качество: SATRip
Продолжительность ▼00:51:27
Формат: AVI
Видео кодек: XviD
Аудио кодек: MP3
Свойства видео: 704x400 (1.76:1), 25 fps, XviD MPEG-4 ~1800 kbps avg, 0.25 bit/pixel
Свойства аудио: 48 kHz, MPEG Layer 3, 2 ch, ~128.00 kbps avg
Тех. описание ▼
Format : AVI
Format/Info : Audio Video Interleave
File size : 712 MiB
Duration : 51mn 27s
Overall bit rate : 1 935 Kbps
Writing application : VirtualDubModRus 1.5.10.2 (build 2542/release)
Writing library : VirtualDub build 30009/release

Video
ID : 0
Format : MPEG-4 Visual
Format profile : Advanced [email protected]
Format settings, BVOP : 2
Format settings, QPel : No
Format settings, GMC : No warppoints
Format settings, Matrix : Default (H.263)
Muxing mode : Packed bitstream
Codec ID : XVID
Codec ID/Hint : XviD
Duration : 51mn 27s
Bit rate : 1 797 Kbps
Width : 704 pixels
Height : 400 pixels
Display aspect ratio : 16:9
Frame rate : 25.000 fps
Color space : YUV
Chroma subsampling : 4:2:0
Bit depth : 8 bits
Scan type : Progressive
Compression mode : Lossy
Bits/(Pixel*Frame) : 0.255
Stream size : 661 MiB (93%)
Writing library : XviD 64

Audio
ID : 1
Format : MPEG Audio
Format version : Version 1
Format profile : Layer 3
Mode : Joint stereo
Mode extension : MS Stereo
Codec ID : 55
Codec ID/Hint : MP3
Duration : 51mn 27s
Bit rate mode : Constant
Bit rate : 128 Kbps
Channel(s) : 2 channels
Sampling rate : 48.0 KHz
Compression mode : Lossy
Delay relative to video : 516ms
Stream size : 47.1 MiB (7%)
Alignment : Split accross interleaves
Interleave, duration : 40 ms (1.00 video frame)
Interleave, preload duration : 500 ms


Стол заказов POWER | Отзывы | Вступление в POWER
И не забываем говорить СПАСИБО, ведь это будет вдохновлять меня на новые релизы !!!

Мои раздачи


Скачал сам - дай скачать другим! Не уходи с раздачи после скачивания!!!


0864e8a8c314f9be2feb213381f370746dbca914Чемпионат Англии 2011-12 / 32-й тур / Обзор тура / Спорт 1 [Футбол, 10.04.2012, SATRip, XviD, RU] Чемпионат Англии 2011-12 / 32-й тур / Обзор тура / Спорт 1 [Футбол, 10.04.2012, SATRip, XviD, RU] " />

Аплоадер: Админ, дата: 11-04-2012, 01:10, торрент скачан: 359 раз

Понравилась раздача? Посмотрите эти:
  • Чемпионат Англии 2013-14 / 3-й тур / Обзор матчей / НТВ+ [Футбол, 03.09.201 ...
  • Чемпионат Англии 2012-2013 / 37-й тур / Обзор тура / Спорт 1 [Футбол, 13.05 ...
  • Чемпионат Англии 2012-13 / 35-й тур / Обзор матчей субботы / Match Of The D ...
  • Чемпионат Англии 2012-13 / 35-й тур / Обзор тура / Спорт 1 [футбол,29.04.20 ...
  • Чемпионат Англии 2012-2013 / 35-й тур / Обзор Матчей / Спорт 1 [Футбол, 29. ...
  • Чемпионат Англии 2012-2013 / 32-й тур / Обзор Матчей / Спорт 1 [Футбол, 08. ...
  • Чемпионат Англии 2012-2013 / 31-й тур / Обзор Матчей / Спорт 1 [Футбол, 02. ...
  • Чемпионат Англии 2012-2013 / 28-й тур / Обзор Матчей / Спорт 1 [футбол, 04. ...
  • Чемпионат Германии 2011-12 / 28-й тур / Боруссия Д - Штутгарт / НТВ+ [Футбо ...
  • Чемпионат Испании 2011-12 / 33-й тур / Атлетико М - Реал М / НТВ+ [Футбол, ...
  • Чемпионат Англии 2011-12 / 36 тур / Челси - Куинз Парк Рейнджерс / Спорт 1 ...
  • Чемпионат Англии 2012-13 / 18-й тур / Обзор тура / Спорт 1 [футбол,24.12.20 ...
  • Чемпионат Англии 2012-2013 / 22-й тур / Обзор Матчей / Спорт 1 [футбол, 14. ...
  • Чемпионат Англии 2011-12 / 31 тур / Ньюкасл - Ливерпуль / Спорт 1 [Футбол, ...
  • Чемпионат Англии 2011-2012 / Обзор матчей 31 тура / Спорт 1 [Футбол, 02.04. ...
  • Чемпионат Англии 2011-12 / 32 тур / Манчестер Юнайтед - Куинз Парк Рейнджер ...
  • Чемпионат Англии 2011-12 / 32 тур / Арсенал - Манчестер Сити / Спорт 1 [Фут ...
  • Чемпионат Англии 2011-12 / 35 тур / Манчестер Юнайтед - Эвертон / Спорт 1 [ ...
  • Чемпионат Англии 2011-2012 / Championship / 45-й Тур / Обзор Матчей / НТВ+ ...
  • Чемпионат Англии 2011-12 / 37-й тур / Манчестер Юнайтед - Суонси Сити / Спо ...
  • Чемпионат Англии 2012-13 | 1-й тур | Вест Бромвич - Ливерпуль | Спорт 1 [Фу ...
  • Чемпионат Англии 2012-2013 | 2-й тур | Обзор Матчей | Футбол [Футбол, 27.08 ...
  • Чемпионат Англии 2012-13 | 3-й тур | Обзор тура | Спорт 1 [Футбол, 03.09.20 ...
  • Чемпионат Англии 2012-2013 / 5-й тур / Обзор Матчей / Спорт 1 [футбол, 24.0 ...
  • Чемпионат Англии 2012-13 / 7-й тур / Обзор тура / Спорт 1 [футбол, 08.10.20 ...
  • Информация
    Посетители, находящиеся в группе Гости, не могут оставлять комментарии к данной публикации.