вход на сайт

Имя пользователя :
Пароль :

Восстановление пароля Регистрация
Чемпионат Англии 2011-12 / 32 тур / Арсенал - Манчестер Сити / Спорт 1 [Футбол, 08.04.2012, SD, XVID, RU, HDTVRip]
Рейтинг:
(голосов: 1)



[img]{THEME}/images/logopost.png[/img]



Чемпионат Англии 2011-12

32-й тур.

Вид спорта: Футбол
Год выпуска: 08.04.2012
Язык комментариев: Русский (Владимир Стогниенко)
Участники: Арсенал - Манчестер Сити
Описание: Чемпионат Англии 2011-12, 32-й тур
Счет матча ▼
1 - 0
Качество: HDRip
Продолжительность ▼00:56:53 + 00:53:34
Формат: AVI
Видео кодек: XviD
Аудио кодек: MP3
Свойства видео: 704x400 (1.76:1), 25 fps, XviD MPEG-4 ~1800 kbps avg, 0.25 bit/pixel
Свойства аудио: 48 kHz, MPEG Layer 3, 2 ch, ~128.00 kbps avg
Тех. описание ▼
Format : AVI
Format/Info : Audio Video Interleave
File size : 787 MiB
Duration : 56mn 53s
Overall bit rate : 1 935 Kbps
Writing library : TMPGEnc 4.0 XPress Version. 4.7.7.307

Video
ID : 0
Format : MPEG-4 Visual
Format profile : Advanced [email protected]
Format settings, BVOP : 2
Format settings, QPel : No
Format settings, GMC : No warppoints
Format settings, Matrix : Default (MPEG)
Muxing mode : Packed bitstream
Codec ID : XVID
Codec ID/Hint : XviD
Duration : 56mn 53s
Bit rate : 1 721 Kbps
Width : 704 pixels
Height : 400 pixels
Display aspect ratio : 16:9
Frame rate : 25.000 fps
Color space : YUV
Chroma subsampling : 4:2:0
Bit depth : 8 bits
Scan type : Progressive
Compression mode : Lossy
Bits/(Pixel*Frame) : 0.244
Stream size : 700 MiB (89%)
Writing library : XviD 1.2.1 (UTC 2008-12-04)

Audio
ID : 1
Format : MPEG Audio
Format version : Version 1
Format profile : Layer 3
Mode : Joint stereo
Mode extension : MS Stereo
Codec ID : 55
Codec ID/Hint : MP3
Duration : 56mn 53s
Bit rate mode : Constant
Bit rate : 128 Kbps
Channel(s) : 2 channels
Sampling rate : 48.0 KHz
Compression mode : Lossy
Stream size : 52.1 MiB (7%)
Alignment : Aligned on interleaves


Стол заказов POWER | Отзывы | Вступление в POWER
И не забываем говорить СПАСИБО, ведь это будет вдохновлять меня на новые релизы !!!

Мои раздачи


Скачал сам - дай скачать другим! Не уходи с раздачи после скачивания!!!


e4a8063bc0d9d6d98b5bede06f4792c891e18ff2Чемпионат Англии 2011-12 / 32 тур / Арсенал - Манчестер Сити / Спорт 1 [Футбол, 08.04.2012, SD, XVID, RU, HDTVRip] Чемпионат Англии 2011-12 / 32 тур / Арсенал - Манчестер Сити / Спорт 1 [Футбол, 08.04.2012, SD, XVID, RU, HDTVRip] " />

Аплоадер: Админ, дата: 9-04-2012, 00:22, торрент скачан: 359 раз

Понравилась раздача? Посмотрите эти:
  • Чемпионат Англии 2013-2014 / 16-й тур / Манчестер Сити – Арсенал / НТВ+ Фут ...
  • Чемпионат Англии 2012-2013 / 34 тур / Тоттенхэм Хотспур - Манчестер Сити / ...
  • Чемпионат Англии 2012-13 / 33 тур / Сток Сити - Манчестер Юнайтед / Спорт 1 ...
  • Чемпионат Англии 2012-2013 / 32 тур / Манчестер Юнайтед — Манчестер Сити / ...
  • Чемпионат Англии 2012-13 / 28-й тур / Манчестер Юнайтед – Норвич Сити / Сп ...
  • Чемпионат Англии 2012-13 / 27 тур / Манчестер Сити - Челси / Спорт 1 [футбо ...
  • Чемпионат Англии 2012-2013 / 25 тур / Манчестер Сити - Ливерпуль / Спорт 1 ...
  • Чемпионат Англии 2011-12 / 36 тур / Челси - Куинз Парк Рейнджерс / Спорт 1 ...
  • Чемпионат Англии 2012-13 / 10 тур / Манчестер Юнайтед - Арсенал / Спорт 1 H ...
  • Чемпионат Англии 2012-13 / 16-й тур / Манчестер Сити — Манчестер Юнайтед / ...
  • Чемпионат Англии 2012-2013 / 21-й тур /Манчестер Сити - Сток Сити [футбол, ...
  • Чемпионат Англии 2012-2013 / 22-й тур / Арсенал - Манчестер Сити / Спорт 1 ...
  • Чемпионат Англии 2012-2013 / 22-й тур / Манчестер Юнайтед (Манчестер) - Лив ...
  • Чемпионат Англии 2012-13 / 16 тур / Манчестер Сити - Манчестер Юнайтед / С ...
  • Чемпионат Англии 2011-12 / 31 тур / Ньюкасл - Ливерпуль / Спорт 1 [Футбол, ...
  • Чемпионат Англии 2011-12 / 32 тур / Манчестер Юнайтед - Куинз Парк Рейнджер ...
  • Чемпионат Англии 2011-12 / 32-й тур / Обзор тура / Спорт 1 [Футбол, 10.04.2 ...
  • Чемпионат Англии 2011-12 / 35 тур / Манчестер Юнайтед - Эвертон / Спорт 1 [ ...
  • Чемпионат Англии / Сезон 2011-2012 / 36-й тур / Манчестер Сити - Манчестер ...
  • Чемпионат Англии 2011-12 / 37-й тур / Манчестер Юнайтед - Суонси Сити / Спо ...
  • Товарищеский матч / Звёзды Малайзии - Манчестер Сити / ТК Футбол [Футбол, 2 ...
  • Чемпионат Англии 2012-13 | 1-й тур | Манчестер Сити - Саутгемптон | Спорт 1 ...
  • Чемпионат Англии 2012-2013 / 7-й тур / Манчестер Сити - Сандерленд / Спорт ...
  • Чемпионат Англии 2012-2013 / 8-й тур / Норвич Сити - Арсенал / Спорт 1HD [ф ...
  • Чемпионат Англии 2012-13 / 10-й тур / Манчестер Юнайтед (Манчестер) - Арсен ...
  • Информация
    Посетители, находящиеся в группе Гости, не могут оставлять комментарии к данной публикации.