вход на сайт

Имя пользователя :
Пароль :

Восстановление пароля Регистрация
Чемпионат Англии 2011-12 / 32 тур / Манчестер Юнайтед - Куинз Парк Рейнджерс / Спорт 1 [Футбол, 08.04.2012, SD, XVID, RU, HDTVRip]
Рейтинг:
(голосов: 1)



[img]{THEME}/images/logopost.png[/img]



Чемпионат Англии 2011-12
Манчестер Юнайтед - Куинз Парк Рейнджерс
32-й тур.

Вид спорта: Футбол
Год выпуска: 08.04.2012
Язык комментариев: Русский (Александр Неценко)
Участники: Манчестер Юнайтед - Куинз Парк Рейнджерс
Описание: Чемпионат Англии 2011-12, 32-й тур
Счет матча ▼
2 - 0
Качество: HDRip
Продолжительность ▼00:55:34 + 00:53:27
Формат: AVI
Видео кодек: XviD
Аудио кодек: MP3
Свойства видео: 704x400 (1.76:1), 25 fps, XviD MPEG-4 ~1800 kbps avg, 0.25 bit/pixel
Свойства аудио: 48 kHz, MPEG Layer 3, 2 ch, ~128.00 kbps avg
Тех. описание ▼
Format : AVI
Format/Info : Audio Video Interleave
File size : 770 MiB
Duration : 55mn 34s
Overall bit rate : 1 938 Kbps
Writing library : VirtualDub build 30586/release

Video
ID : 0
Format : MPEG-4 Visual
Format profile : Advanced [email protected]
Format settings, BVOP : 2
Format settings, QPel : No
Format settings, GMC : No warppoints
Format settings, Matrix : Default (MPEG)
Muxing mode : Packed bitstream
Codec ID : XVID
Codec ID/Hint : XviD
Duration : 55mn 34s
Bit rate : 1 724 Kbps
Width : 704 pixels
Height : 400 pixels
Display aspect ratio : 16:9
Frame rate : 25.000 fps
Color space : YUV
Chroma subsampling : 4:2:0
Bit depth : 8 bits
Scan type : Progressive
Compression mode : Lossy
Bits/(Pixel*Frame) : 0.245
Stream size : 685 MiB (89%)
Writing library : XviD 1.2.1 (UTC 2008-12-04)

Audio
ID : 1
Format : MPEG Audio
Format version : Version 1
Format profile : Layer 3
Mode : Joint stereo
Mode extension : MS Stereo
Codec ID : 55
Codec ID/Hint : MP3
Duration : 55mn 34s
Bit rate mode : Constant
Bit rate : 128 Kbps
Channel(s) : 2 channels
Sampling rate : 48.0 KHz
Compression mode : Lossy
Stream size : 50.9 MiB (7%)
Alignment : Split accross interleaves


Стол заказов POWER | Отзывы | Вступление в POWER
И не забываем говорить СПАСИБО, ведь это будет вдохновлять меня на новые релизы !!!

Мои раздачи


Скачал сам - дай скачать другим! Не уходи с раздачи после скачивания!!!


f4faad68fe735ebeaaa17ff83169663837579c81Чемпионат Англии 2011-12 / 32 тур / Манчестер Юнайтед - Куинз Парк Рейнджерс / Спорт 1 [Футбол, 08.04.2012, SD, XVID, RU, HDTVRip] Чемпионат Англии 2011-12 / 32 тур / Манчестер Юнайтед - Куинз Парк Рейнджерс / Спорт 1 [Футбол, 08.04.2012, SD, XVID, RU, HDTVRip] " />

Аплоадер: Админ, дата: 8-04-2012, 22:06, торрент скачан: 359 раз

Понравилась раздача? Посмотрите эти:
  • Чемпионат Англии 2012-2013 / 36 тур / Манчестер Юнайтед - Челси / Спорт 1 [ ...
  • Чемпионат Англии 2012-13 / 33 тур / Сток Сити - Манчестер Юнайтед / Спорт 1 ...
  • Чемпионат Англии 2012-2013 / 32 тур / Манчестер Юнайтед — Манчестер Сити / ...
  • Чемпионат Англии 2012-13 / 28-й тур / Манчестер Юнайтед – Норвич Сити / Сп ...
  • Чемпионат Англии 2012-13 / 24-й Тур / Манчестер Юнайтед - Саутгемптон / Спо ...
  • Чемпионат Англии 2012-13 / 25-й тур / Фулхэм — Манчестер Юнайтед / Спорт 1 ...
  • Чемпионат Англии 2011-12 / 25-й тур / Манчестер Юнайтед - Ливерпуль / Спорт ...
  • Чемпионат Англии 2011-12 / 36 тур / Челси - Куинз Парк Рейнджерс / Спорт 1 ...
  • Чемпионат Англии 2012-13 / 4-й тур / Куинз Парк Рейнджерс - Челси / Спорт 1 ...
  • Чемпионат Англии 2012-2013 / 5-й тур / Ливерпуль - Манчестер Юнайтед / Спор ...
  • Чемпионат Англии 2012-13 / 16-й тур / Манчестер Сити — Манчестер Юнайтед / ...
  • Чемпионат Англии 2012-2013 / 22-й тур / Манчестер Юнайтед (Манчестер) - Лив ...
  • Чемпионат Англии 2012-2013 / 22-й тур / Манчестер Юнайтед - Ливерпуль / Спо ...
  • Чемпионат Англии 2012-2013 / 18-й тур / Суонси Сити - Манчестер Юнайтед / ...
  • Чемпионат Англии 2012-2013 / 21-й тур / Челси – Куинз Парк Рейнджерс / Росс ...
  • Чемпионат Англии 2011-12 / 32 тур / Арсенал - Манчестер Сити / Спорт 1 [Фут ...
  • Чемпионат Англии 2011-12 / 35 тур / Манчестер Юнайтед - Эвертон / Спорт 1 [ ...
  • Чемпионат Англии 2011-12 / 37-й тур / Манчестер Юнайтед - Суонси Сити / Спо ...
  • Чемпионат Англии 2011-12 / 38-й тур / Манчестер Сити - Куинз Парк Рейнджерс ...
  • Чемпионат Англии 2011-12 / 38-й тур / Сандерленд - Манчестер Юнайтед / Спор ...
  • Чемпионат Англии 2012-13 / 3-й тур / Манчестер Сити - Куинз Парк Рейнджерс ...
  • Чемпионат Англии 2012-13 / 9-й тур / Арсенал — Куинз Парк Рейнджерс / Футбо ...
  • Чемпионат Англии 2012-13 /9 тур/ Челси-Манчестер Юнайтед / Спорт 1 HD [фу ...
  • Чемпионат Англии 2012-13 / 10-й тур / Манчестер Юнайтед (Манчестер) - Арсен ...
  • Чемпионат Англии 2012-2013 / 13-й тур / Манчестер Юнайтед - Куинз Парк Рейн ...
  • Информация
    Посетители, находящиеся в группе Гости, не могут оставлять комментарии к данной публикации.