вход на сайт

Имя пользователя :
Пароль :

Восстановление пароля Регистрация
Чемпионат Англии 2011-12 / 31 тур / Ньюкасл - Ливерпуль / Спорт 1 [Футбол, 01.04.2012, SATRip, AVI, RU]
Рейтинг:
(голосов: 1)



[img]{THEME}/images/logopost.png[/img]



Чемпионат Англии 2011-12
31-й тур.


Вид спорта: Футбол
Год выпуска: 01.04.2012
Язык комментариев: Русский
Участники: Ньюкасл - Ливерпуль
Описание: Чемпионат Англии 2011-12, 31-й тур.
Составы команд ▼


Счет матча ▼
2 - 0
Качество: SATRip
Продолжительность ▼00:58:02 + 00:56:17
Формат: AVI
Видео кодек: XviD
Аудио кодек: MP3
Свойства видео: 704x400 (1.76:1), 25 fps, XviD MPEG-4 ~1800 kbps avg, 0.25 bit/pixel
Свойства аудио: 48 kHz, MPEG Layer 3, 2 ch, ~128.00 kbps avg
Тех. описание ▼
Format : AVI
Format/Info : Audio Video Interleave
File size : 806 MiB
Duration : 58mn 1s
Overall bit rate : 1 941 Kbps
Writing application : GOM ENCODER (GAviWriter 1.0)

Video
ID : 0
Format : MPEG-4 Visual
Format profile : [email protected]
Format settings, BVOP : No
Format settings, QPel : No
Format settings, GMC : No warppoints
Format settings, Matrix : Default (H.263)
Codec ID : XVID
Codec ID/Hint : XviD
Duration : 58mn 1s
Bit rate : 1 800 Kbps
Width : 704 pixels
Height : 400 pixels
Display aspect ratio : 16:9
Frame rate : 25.000 fps
Color space : YUV
Chroma subsampling : 4:2:0
Bit depth : 8 bits
Scan type : Progressive
Compression mode : Lossy
Bits/(Pixel*Frame) : 0.256
Stream size : 747 MiB (93%)
Writing library : Lavc52.110.0

Audio
ID : 1
Format : MPEG Audio
Format version : Version 1
Format profile : Layer 3
Mode : Joint stereo
Mode extension : MS Stereo
Codec ID : 55
Codec ID/Hint : MP3
Duration : 58mn 1s
Bit rate mode : Constant
Bit rate : 128 Kbps
Channel(s) : 2 channels
Sampling rate : 48.0 KHz
Compression mode : Lossy
Stream size : 53.1 MiB (7%)
Alignment : Aligned on interleaves
Interleave, duration : 24 ms (0.60 video frame)
Interleave, preload duration : 24 ms


Стол заказов POWER | Отзывы | Вступление в POWER
И не забываем говорить СПАСИБО, ведь это будет вдохновлять меня на новые релизы !!!

Мои раздачи


Скачал сам - дай скачать другим! Не уходи с раздачи после скачивания!!!


bec50cc8caea3f61fd1cd3186f464a0521c16163Чемпионат Англии 2011-12 / 31 тур / Ньюкасл - Ливерпуль / Спорт 1 [Футбол, 01.04.2012, SATRip, AVI, RU] Чемпионат Англии 2011-12 / 31 тур / Ньюкасл - Ливерпуль / Спорт 1 [Футбол, 01.04.2012, SATRip, AVI, RU] " />

Аплоадер: Админ, дата: 1-04-2012, 21:05, торрент скачан: 359 раз

Понравилась раздача? Посмотрите эти:
  • Чемпионат Англии 2013-2014 / 19-й тур / Ньюкасл - Арсенал / НТВ+ Футбол HD ...
  • Чемпионат Англии 2013-14 / 19 тур / Челси - Ливерпуль / НТВ+ [Футбол, 29.12 ...
  • Чемпионат Англии 2012-2013 / 35-й тур / Ньюкасл Юнайтед - Ливерпуль / Спорт ...
  • Чемпионат Германии 2011-12 / 28-й тур / Боруссия Д - Штутгарт / НТВ+ [Футбо ...
  • Чемпионат Испании 2011-12 / 33-й тур / Атлетико М - Реал М / НТВ+ [Футбол, ...
  • Чемпионат Англии 2011-12 / 36 тур / Челси - Куинз Парк Рейнджерс / Спорт 1 ...
  • Чемпионат Англии 2012-13 / 11-й тур / Челси - Ливерпуль / Футбол [Футбол, 1 ...
  • Чемпионат Англии 2012-13 / 19-й тур / Манчестер Юнайтед - Ньюкасл / Спорт ...
  • Чемпионат Англии 2012-2013 / 21-й тур / Ньюкасл - Эвертон [Футбол, 2012-201 ...
  • Чемпионат Англии 2012-13 / 23-й тур / Ливерпуль – Норвич / Спорт 1 [футбол, ...
  • Чемпионат Англии 2012-2013 / 22-й тур / Манчестер Юнайтед (Манчестер) - Лив ...
  • Чемпионат Англии 2012-13 / 17-й тур / Ньюкасл - Манчестер Сити / Спорт 1 [ф ...
  • Чемпионат Англии 2012-13 / 20 тур / Эвертон - Челси / Спорт 1 [футбол,30.12 ...
  • Чемпионат Англии 2011-12 / 1-й тур / Ливерпуль - Сандерленд / Спорт 1 [13.0 ...
  • Чемпионат Англии 2011-12 / 3-й тур / Ливерпуль - Болтон / Спорт 1 [27/08/20 ...
  • Чемпионат Англии 2011-2012 / 26-й тур / Ливерпуль - Эвертон / Спорт 1 [13.0 ...
  • Чемпионат Англии 2011-12 / 32 тур / Манчестер Юнайтед - Куинз Парк Рейнджер ...
  • Чемпионат Англии 2011-12 / 32 тур / Арсенал - Манчестер Сити / Спорт 1 [Фут ...
  • Чемпионат Англии 2011-12 / 32-й тур / Обзор тура / Спорт 1 [Футбол, 10.04.2 ...
  • Чемпионат Англии 2011-12 / 35 тур / Манчестер Юнайтед - Эвертон / Спорт 1 [ ...
  • Чемпионат Англии 2011-2012 / Championship / 45-й Тур / Обзор Матчей / НТВ+ ...
  • Чемпионат Англии 2011-12 / 37-й тур / Манчестер Юнайтед - Суонси Сити / Спо ...
  • Чемпионат Англии 2011-12 / 37-й Тур / Ливерпуль — Челси / Спорт 1 [Футбол, ...
  • Чемпионат Англии 2012-13 | 1-й тур | Вест Бромвич - Ливерпуль | Спорт 1 [Фу ...
  • Чемпионат Англии 2012-13 | 2-й тур | Челси - Ньюкасл | Россия 2 [Футбол, 25 ...
  • Информация
    Посетители, находящиеся в группе Гости, не могут оставлять комментарии к данной публикации.