вход на сайт

Имя пользователя :
Пароль :

Восстановление пароля Регистрация
Олимпиада 2012 / Мужчины / Группа С / 1-й тур / Бразилия - Египет / НТВ+ [Футбол, 26.07.2012, RU, SAT]
Рейтинг:
(голосов: 1)



[img]{THEME}/images/logopost.png[/img]



Олимпиада 2012
Бразилия - Египет

Вид спорта: Футбол
Год выпуска: 26.07.2012
Язык комментариев: Русский (Черданцев)
Участники: Бразилия - Египет
Описание: Олимпиада 2012 / Мужчины / Группа С / 1-й тур
Составы команд ▼Сборная Бразилии: Нето, Рафаэл, Тьяго Силва, Жуан Жесус, Марсело, Сандро, Ромуло, Оскар, Леандро Дамиан, Неймар, Халк.

Запасные: Габриэл, Бруно Увини, Данило, Алекс Сандро, Лукас Моура, Пауло Энрике Гансо, Алешандре Пато.

Главный тренер: Мано Менезес.

Сборная Египта: Ахмед Эль-Шенави, Махмуд Ала, Ахмед Хегази, Ахмед Фатхи, Ислам Рамадан, Мохамед Абутрика, Салех Гомаа, Хоссам Хассан, Мохамед Эль-Ненни, Марван Мохсен, Эмад Абд Эль-Наби Мотеаб.

Запасные: Мохамед Бассам, Али Фатхи, Омар Габер, Саад Сами, Шехаб Элдин, Мохамед Салах, Ахмед Магди.

Главный тренер: Хани Рамзи.
Качество: SATRip
Продолжительность ▼00:51:01+00:49:46
Формат: AVI
Видео кодек: XviD
Аудио кодек: MP3
Свойства видео: 704x400 (16/9), 25,000fps, 1800 Kbps
Свойства аудио: 48 kHz, 2 ch, 128 kbps
Тех. описание ▼Format : AVI
Format/Info : Audio Video Interleave
File size : 689 MiB
Duration : 49mn 46s
Overall bit rate : 1 935 Kbps
Movie name : Rip by ADP
Director : ADP
Writing application : TMPGEnc Video Mastering Works 5 Version. 5.0.6.38
Writing library : TMPGEnc Video Mastering Works 5 Version. 5.0.6.38
Copyright : Aleks Del Piero
Comment : RGFootball.NET

Video
ID : 0
Format : MPEG-4 Visual
Format profile : Advanced [email protected]
Format settings, BVOP : 2
Format settings, QPel : No
Format settings, GMC : No warppoints
Format settings, Matrix : Default (MPEG)
Codec ID : XVID
Codec ID/Hint : XviD
Duration : 49mn 46s
Bit rate : 1 799 Kbps
Width : 704 pixels
Height : 400 pixels
Display aspect ratio : 16:9
Frame rate : 25.000 fps
Color space : YUV
Chroma subsampling : 4:2:0
Bit depth : 8 bits
Scan type : Progressive
Compression mode : Lossy
Bits/(Pixel*Frame) : 0.256
Stream size : 641 MiB (93%)
Writing library : XviD 1.2.1 (UTC 2008-12-04)

Audio
ID : 1
Format : MPEG Audio
Format version : Version 1
Format profile : Layer 3
Mode : Joint stereo
Mode extension : MS Stereo
Codec ID : 55
Codec ID/Hint : MP3
Duration : 49mn 45s
Bit rate mode : Constant
Bit rate : 128 Kbps
Channel(s) : 2 channels
Sampling rate : 48.0 KHz
Compression mode : Lossy
Stream size : 45.6 MiB (7%)
Alignment : Split accross interleaves
Interleave, duration : 250 ms (6.25 video frames)
Interleave, preload duration : 231 ms

Стол заказов POWER | Отзывы | Вступление в POWER
Мои раздачи


c9689239ea997523016f3a2141f3ce9cfeff4591Олимпиада 2012 / Мужчины / Группа С / 1-й тур / Бразилия - Египет / НТВ+ [Футбол, 26.07.2012, RU, SAT] Олимпиада 2012 / Мужчины / Группа С / 1-й тур / Бразилия - Египет / НТВ+ [Футбол, 26.07.2012, RU, SAT] " />

Аплоадер: Админ, дата: 27-07-2012, 16:27, торрент скачан: 359 раз

Понравилась раздача? Посмотрите эти:
  • Чемпионат Германии 2013-14 / 5-й тур / Боруссия (Дортмунд) - Гамбург / НТВ+ ...
  • Чемпионат Германии 2012-13 / 27-й тур / Бавария - Гамбург / НТВ+ [Футбол, 3 ...
  • Кубок Либертадорес 2013 / 2-й раунд / Группа 3 / Атлетико Минейро (Бразилия ...
  • Чемпионат Германии 2011-12 / 28-й тур / Боруссия Д - Штутгарт / НТВ+ [Футбо ...
  • Чемпионат Испании 2011-12 / 36-й тур / Реал Мадрид - Севилья / НТВ+ [Футбол ...
  • Чемпионат Англии 2011-12 / 36 тур / Челси - Куинз Парк Рейнджерс / Спорт 1 ...
  • Чемпионат Европы 2012 / Группа C / 1-й тур / Испания - Италия / Россия 1 [Ф ...
  • Чемпионат Европы 2012 / Группа C / 1-й тур / Ирландия — Хорватия / ТРК Футб ...
  • Олимпиада 2012 / Мужчины / Группа D / 1-й тур / Испания — Япония / НТВ+ [Фу ...
  • Олимпиада 2012 / Мужчины / Группа A / 1-й тур / Великобритания — Сенегал / ...
  • Олимпиада 2012/ Футбол / Мужчины / Группа C / 2-й тур / Бразилия - Беларусь ...
  • Олимпиада 2012 / Футбол / Мужчины / Группа A / 3-й тур / Великобритания - У ...
  • Олимпиада 2012 / Мужчины / 1/4 Финала / Бразилия - Гондурас / НТВ+ [Футбол, ...
  • Олимпиада 2012 / Мужчины / Матч за 3-е место / Корея - Япония / НТВ+ [Футбо ...
  • Чемпионат Англии 2011-12 / 35 тур / Манчестер Юнайтед - Эвертон / Спорт 1 [ ...
  • Чемпионат Европы 2012 / Группа B / 1-й тур / Германия - Португалия / Спорт ...
  • Товарищеский матч 2012 / Аргентина - Бразилия / Россия 2 [Футбол, 09.06.201 ...
  • Товарищеский матч 2012 / Звезды мирового футбола в Майами / "Друзья Месси" ...
  • Олимпийский квалификационный турнир 2012 / Венесуэла / Мужчины / Группа C / ...
  • Олимпиада 2012 / Женщины, Мужчины / Плавание / Квалификация / НТВ+ [30.07.2 ...
  • Товарищеский матч / Звёзды Малайзии - Манчестер Сити / ТК Футбол [Футбол, 2 ...
  • Олимпиада 2012 / Мужчины / Прыжки на батуте / Финал / НТВ+ [03.08.2012, SD, ...
  • Олимпиада 2012 / Мужчины / Финал / Бразилия - Мексика / НТВ+ [Футбол, 11.08 ...
  • Олимпиада 2012 / Мужчины/ Матч за 3-е место / Аргентина — Россия [Баскетбо ...
  • Олимпиада 2012 / Мужчины / Финал / Россия — Бразилия / НТВ+ [Волейбол, 12.0 ...
  • Информация
    Посетители, находящиеся в группе Гости, не могут оставлять комментарии к данной публикации.