вход на сайт

Имя пользователя :
Пароль :

Восстановление пароля Регистрация
Олимпиада 2012 / Мужчины / Группа D / 1-й тур / Испания — Япония / НТВ+ [Футбол, 26.07.2012, DVBRip, RU]
Рейтинг:
(голосов: 1)



[img]{THEME}/images/logopost.png[/img]



Олимпиада 2012


Вид спорта: Футбол
Год выпуска: 26.07.2012
Язык комментариев: Русский (Василий Уткин)
Участники: Испания — Япония
Описание: Олимпиада 2012 / Мужчины / Группа D / 1-й тур / Испания — Япония
Качество: DVBRip
Продолжительность ▼01:38:52
Формат: AVI
Видео кодек: XviD
Аудио кодек: MP3
Свойства видео: 704x400 (16/9), 25,000fps, 1800 Kbps
Свойства аудио: 48 kHz, 2 ch, 128 kbps
Тех. описание ▼Format : AVI
Format/Info : Audio Video Interleave
File size : 726 MiB
Duration : 52mn 25s
Overall bit rate : 1 937 Kbps
Writing library : VirtualDub build 34703/release

Video
ID : 0
Format : MPEG-4 Visual
Format profile : Advanced [email protected]
Format settings, BVOP : 2
Format settings, QPel : No
Format settings, GMC : No warppoints
Format settings, Matrix : Default (MPEG)
Codec ID : XVID
Codec ID/Hint : XviD
Duration : 52mn 25s
Bit rate : 1 799 Kbps
Width : 704 pixels
Height : 400 pixels
Display aspect ratio : 16:9
Frame rate : 25.000 fps
Color space : YUV
Chroma subsampling : 4:2:0
Bit depth : 8 bits
Scan type : Progressive
Compression mode : Lossy
Bits/(Pixel*Frame) : 0.256
Stream size : 675 MiB (93%)
Writing library : XviD 1.2.1 (UTC 2008-12-04)

Audio
ID : 1
Format : MPEG Audio
Format version : Version 1
Format profile : Layer 3
Mode : Joint stereo
Mode extension : MS Stereo
Codec ID : 55
Codec ID/Hint : MP3
Duration : 52mn 25s
Bit rate mode : Constant
Bit rate : 128 Kbps
Channel(s) : 2 channels
Sampling rate : 48.0 KHz
Compression mode : Lossy
Stream size : 48.0 MiB (7%)
Alignment : Split accross interleaves
Interleave, duration : 40 ms (1.00 video frame)
Interleave, preload duration : 500 ms

Стол заказов POWER | Отзывы | Вступление в POWER
Мои раздачи


f167c60ee6b911c3c35f788df3a9ec3ca790963eОлимпиада 2012 / Мужчины / Группа D / 1-й тур / Испания — Япония / НТВ+ [Футбол, 26.07.2012, DVBRip, RU] Олимпиада 2012 / Мужчины / Группа D / 1-й тур / Испания — Япония / НТВ+ [Футбол, 26.07.2012, DVBRip, RU] " />

Аплоадер: Админ, дата: 27-07-2012, 00:15, торрент скачан: 359 раз

Понравилась раздача? Посмотрите эти:
  • Чемпионат Италии 2012-13 / 36-й тур / Рома — Кьево / НТВ+ [07.05.2013, SD, ...
  • Чемпионат Германии 2011-12 / 28-й тур / Боруссия Д - Штутгарт / НТВ+ [Футбо ...
  • Чемпионат Европы 2012 / Группа C / 1-й тур / Испания - Италия / Россия 1 [Ф ...
  • Чемпионат Европы 2012 / Группа C / 1-й тур / Ирландия — Хорватия / ТРК Футб ...
  • Олимпиада 2012 / Мужчины / Группа A / 1-й тур / Великобритания — Сенегал / ...
  • Олимпиада 2012 / Мужчины / Группа С / 1-й тур / Бразилия - Египет / НТВ+ [Ф ...
  • Олимпиада 2012/ Футбол / Мужчины / Группа C / 2-й тур / Бразилия - Беларусь ...
  • Олимпиада 2012 / Футбол / Мужчины / Группа A / 3-й тур / Великобритания - У ...
  • Олимпиада 2012 / Мужчины / 1/4 Финала / Бразилия - Гондурас / НТВ+ [Футбол, ...
  • Олимпиада 2012 / Мужчины / Матч за 3-е место / Корея - Япония / НТВ+ [Футбо ...
  • Чемпионат Англии 2012-13 / 11-й тур / Челси - Ливерпуль / Футбол [Футбол, 1 ...
  • Лига Европы 2012-13 / 6-й тур / Группа H / Интер (Италия) — Нефтчи (Азербай ...
  • Лига Чемпионов 2011-12 / 1/2 финала / Первый матч / Челси (Англия) - Барсел ...
  • Чемпионат Англии 2011-2012 / Championship / 45-й Тур / Обзор Матчей / НТВ+ ...
  • Лига Чемпионов 2011-12 / 1/2 финала / Ответный матч / Барселона (Испания) - ...
  • Лига Чемпионов 2011-12 / 1/2 финала / Ответный матч / Реал Мадрид (Испания) ...
  • Чемпионат Европы 2012 / Группа B / 1-й тур / Германия - Португалия / Спорт ...
  • Чемпионат Европы 2012 / Финал / Испания — Италия / Футбол [Футбол, 01.07.20 ...
  • Олимпийский квалификационный турнир 2012 / Венесуэла / Мужчины / Группа C / ...
  • Товарищеский матч 2012 / АмаЗулу (ЮАР) - Манчестер Юнайтед (Англия) / MU TV ...
  • Олимпиада 2012 / Женщины, Мужчины / Плавание / Квалификация / НТВ+ [30.07.2 ...
  • Олимпиада 2012 / Мужчины / Прыжки на батуте / Финал / НТВ+ [03.08.2012, SD, ...
  • Олимпиада 2012 / Мужчины / Финал / Бразилия - Мексика / НТВ+ [Футбол, 11.08 ...
  • Лига Чемпионов 2011-12 / 4-й тур / Группа G / Селтик (Шотландия) - Барселон ...
  • Лига Европы 2012-13 / 5-й тур / Группа А / Ливерпуль (Англия) - Янг Бойз (Ш ...
  • Информация
    Посетители, находящиеся в группе Гости, не могут оставлять комментарии к данной публикации.