вход на сайт

Имя пользователя :
Пароль :

Восстановление пароля Регистрация
ХХХ Летние Олимпийские Игры / Лёгкая атлетика / День 8 / Вечер [10.08.2012, SD, XviD, RU, IPTV]
Рейтинг:
(голосов: 1)



[img]{THEME}/images/logopost.png[/img]



Лёгкая атлетика / День 8 / Вечер

Вид спорта: Лёгкая атлетика
Год выпуска: 10.08.2012
Язык комментариев: Русский
Участники: Атлеты

Описание: Лондон. Легкая атлетика. Olympic Park - Olympic Stadium. 8-й день. Вечер.
В составе трансляции:
- финал прыжка с шестом (мужчины)
- забеги эстафеты 4 х 400 м (женщины)
- финал метания молота (женщины)
- забеги эстафеты 4 х 100 м (мужчины)
- финал 5000 м (женщины)
- финал эстафеты 4 х 100 м (женщины)
- финал 1500 м (женщины)
- финал эстафеты 4 х 400 м (мужчины)

Качество: IPTVRip / SD
Продолжительность:2:58:53

Формат: AVI
Видео кодек: Xvid
Аудио кодек: MP3
Свойства видео: 704x400, 25 fps, 1 700 kbps
Свойства аудио: 2 ch, 48 KHz, 112 kbps
"Mediainfo" ▼
General
Format : AVI
Format/Info : Audio Video Interleave
File size : 2.29 GiB
Duration : 2h 58mn
Overall bit rate : 1 837 Kbps
Video #0
ID : 0
Format : MPEG-4 Visual
Format profile : Advanced [email protected]
Format settings, BVOP : 2
Format settings, QPel : No
Format settings, GMC : No warppoints
Format settings, Matrix : Default (H.263)
Muxing mode : Packed bitstream
Codec ID : XVID
Codec ID/Hint : XviD
Duration : 2h 58mn
Bit rate : 1 699 Kbps
Width : 704 pixels
Height : 400 pixels
Display aspect ratio : 16:9
Frame rate : 25.000 fps
Color space : YUV
Chroma subsampling : 4:2:0
Bit depth : 8 bits
Scan type : Progressive
Compression mode : Lossy
Bits/(Pixel*Frame) : 0.241
Stream size : 2.12 GiB (93%)
Writing library : XviD 1.2.1 (UTC 2008-12-04)
Audio #1
ID : 1
Format : MPEG Audio
Format version : Version 1
Format profile : Layer 3
Mode : Joint stereo
Mode extension : MS Stereo
Codec ID : 55
Codec ID/Hint : MP3
Duration : 2h 58mn
Bit rate mode : Constant
Bit rate : 128 Kbps
Channel(s) : 2 channels
Sampling rate : 48.0 KHz
Compression mode : Lossy
Stream size : 164 MiB (7%)
Alignment : Aligned on interleaves
Interleave, duration : 40 ms (1.00 video frame)



29091c9fc0572942fcd8967ff622992d8b7c406eХХХ Летние Олимпийские Игры / Лёгкая атлетика / День 8 / Вечер [10.08.2012, SD, XviD, RU, IPTV] ХХХ Летние Олимпийские Игры / Лёгкая атлетика / День 8 / Вечер [10.08.2012, SD, XviD, RU, IPTV] " />

Аплоадер: Админ, дата: 11-08-2012, 09:30, торрент скачан: 359 раз

Понравилась раздача? Посмотрите эти:
  • XXVII Всемирная летняя Универсиада / Легкая атлетика / День 1 / Утро / Росс ...
  • XXVII Всемирная летняя Универсиада / Легкая атлетика / День 2 / Утро / Росс ...
  • XXVII Всемирная летняя Универсиада / Легкая атлетика / День 2 / Вечер / Спо ...
  • Олимпиада 2012 / Тяжелая Атлетика / Мужчины / 94кг / Финал / НТВ+ [тяжелая ...
  • The Olympic Games 2012 / Олимпийские игры 2012 [Спортивная гимнастика / Отд ...
  • ХХХ Летние Олимпийские Игры / Лёгкая атлетика / День 3 / Вечер / HD Спорт [ ...
  • Олимпиада 2012 / Легкая Атлетика / День 3 / Вечер / EuroSport [Легкая Атлет ...
  • Олимпиада 2012 / Женщины, Мужчины / Плавание / Квалификация / НТВ+ [30.07.2 ...
  • ХХХ Летние Олимпийские Игры / Плавание / Мужчины, Женщины / День 3 - Финалы ...
  • Олимпиада 2012 / Тяжелая атлетика / Женщины до 63 кг / НТВ + [Тяжелая атлет ...
  • The Olympic Games 2012 / Олимпийские игры 2012 [Спортивная гимнастика / Мно ...
  • Олимпиада 2012 / Тяжелая Атлетика / Женщины / 75кг / Финал / НТВ+ [03.08.20 ...
  • Олимпиада 2012 / Тяжелая Атлетика / Мужчины / 94кг / Финал / НТВ+Онлайн [04 ...
  • The Olympic Games 2012 / Олимпийские игры 2012 [Спортивная гимнастика / Отд ...
  • ХХХ Летние Олимпийские Игры / Лёгкая атлетика / День 5 / Утро / Спорт 1 [07 ...
  • ХХХ Летние Олимпийские Игры / Лёгкая атлетика / День 5 / Вечер / Спорт 1 [0 ...
  • The Olympic Games 2012 / Олимпийские игры 2012 [Спортивная гимнастика / Отд ...
  • ХХХ Летние Олимпийские Игры / Волейбол / Мужчины / Четвертьфинал / Польша – ...
  • ХХХ Летние Олимпийские Игры / Лёгкая атлетика / День 6 / Вечер / Спорт 1 [0 ...
  • ХХХ Летние Олимпийские Игры / Лёгкая атлетика / День 7 / Утро / Спорт 1 [09 ...
  • The Olympic Games 2012 / Олимпийские игры 2012 [Спортивная гимнастика / Отд ...
  • ХХХ Летние Олимпийские Игры / Лёгкая атлетика / День 7 / Финалы и Полуфинал ...
  • The Olympic Games 2012 / Олимпийские игры 2012 [Спортивная гимнастика / Отд ...
  • The Olympic Games 2012 / Олимпийские игры 2012 [Художественная гимнастика / ...
  • The Olympic Games 2012 / Олимпийские игры 2012 [Художественная гимнастика / ...
  • Информация
    Посетители, находящиеся в группе Гости, не могут оставлять комментарии к данной публикации.