вход на сайт

Имя пользователя :
Пароль :

Восстановление пароля Регистрация
ХХХ Летние Олимпийские Игры / Лёгкая атлетика / День 7 / Финалы и Полуфиналы /[09.08.2012, Лёгкая Атлетика, Xvid, IPTVRip]
Рейтинг:
(голосов: 1)



[img]{THEME}/images/logopost.png[/img]



Лёгкая атлетика / День 7 / Полуфиналы и Финалы

Вид спорта: Лёгкая атлетика
Год выпуска: 09.08.2012
Язык комментариев: Русский
Участники: Атлеты

Описание: Лондон. Легкая атлетика. Olympic Park - Olympic Stadium. 7-й день. Полуфиналы и Финалы.
Доп. информация: Рип с двух каналов без рекламы.(Россия 1, Россия 2)

Качество: IPTVRip
Продолжительность: 03:21:18

Формат: AVI
Видео кодек: Xvid
Аудио кодек: MP3
Свойства видео: 720x448, 25fps, 1800 kbps
Свойства аудио: 2 ch, 48 KHz, 128 kbps
"Mediainfo" ▼
General
Format : AVI
Format/Info : Audio Video Interleave
File size : 2.72 GiB
Duration : 3h 21mn
Overall bit rate : 1 936 Kbps
Video #0
ID : 0
Format : MPEG-4 Visual
Format profile : Advanced [email protected]
Format settings, BVOP : 2
Format settings, QPel : No
Format settings, GMC : No warppoints
Format settings, Matrix : Default (MPEG)
Muxing mode : Packed bitstream
Codec ID : XVID
Codec ID/Hint : XviD
Duration : 3h 21mn
Bit rate : 1 798 Kbps
Width : 720 pixels
Height : 448 pixels
Display aspect ratio : 1.607
Frame rate : 25.000 fps
Color space : YUV
Chroma subsampling : 4:2:0
Bit depth : 8 bits
Scan type : Progressive
Compression mode : Lossy
Bits/(Pixel*Frame) : 0.223
Stream size : 2.53 GiB (93%)
Writing library : XviD 64
Audio #1
ID : 1
Format : MPEG Audio
Format version : Version 1
Format profile : Layer 3
Mode : Joint stereo
Mode extension : MS Stereo
Codec ID : 55
Codec ID/Hint : MP3
Duration : 3h 21mn
Bit rate mode : Constant
Bit rate : 128 Kbps
Channel(s) : 2 channels
Sampling rate : 48.0 KHz
Compression mode : Lossy
Stream size : 184 MiB (7%)
Alignment : Aligned on interleaves
Interleave, duration : 40 ms (1.00 video frame)



6b2d4006794e011836a638631021b280b4664d47ХХХ Летние Олимпийские Игры / Лёгкая атлетика / День 7 / Финалы и Полуфиналы /[09.08.2012, Лёгкая Атлетика, Xvid, IPTVRip] ХХХ Летние Олимпийские Игры / Лёгкая атлетика / День 7 / Финалы и Полуфиналы /[09.08.2012, Лёгкая Атлетика, Xvid, IPTVRip] " />

Аплоадер: Админ, дата: 10-08-2012, 10:52, торрент скачан: 359 раз

Понравилась раздача? Посмотрите эти:
  • XXVII Всемирная летняя Универсиада / Легкая атлетика / День 1 / Утро / Росс ...
  • XXVII Всемирная летняя Универсиада / Легкая атлетика / День 2 / Утро / Росс ...
  • XXVII Всемирная летняя Универсиада / Легкая атлетика / День 2 / Вечер / Спо ...
  • Чемпионат мира по легкой атлетике 2013 / Москва (Россия) / День 1 / День / ...
  • Чемпионат мира по легкой атлетике 2013 / Москва (Россия) / День 2 / День / ...
  • Чемпионат мира по легкой атлетике 2013 / Москва (Россия) / День 2 / Вечер / ...
  • Чемпионат мира по легкой атлетике 2013 / Москва (Россия) / День 3 / Утро / ...
  • Чемпионат мира по легкой атлетике 2013 / Москва (Россия) / День 4 / Утро / ...
  • Чемпионат мира по легкой атлетике 2013 / Москва (Россия) / День 6 / Утро / ...
  • Чемпионат мира по легкой атлетике 2013 / Москва (Россия) / День 6 / Вечер / ...
  • Чемпионат мира по легкой атлетике 2013 / Москва (Россия) / День 7 / Утро / ...
  • Чемпионат мира по легкой атлетике 2013 / Москва (Россия) / День 7 / Вечер / ...
  • Олимпиада 2012 / Тяжелая Атлетика / Мужчины / 94кг / Финал / НТВ+ [тяжелая ...
  • ХХХ Летние Олимпийские Игры / Лёгкая атлетика / День 3 / Вечер / HD Спорт [ ...
  • Олимпиада 2012 / Легкая Атлетика / День 3 / Вечер / EuroSport [Легкая Атлет ...
  • Технологии спорта: Легкая атлетика [Легкая атлетика, 2008, IPTVRip]
  • ХХХ Летние Олимпийские Игры / Плавание / Мужчины, Женщины / День 3 - Финалы ...
  • Олимпиада 2012 / Тяжелая атлетика / Женщины до 63 кг / НТВ + [Тяжелая атлет ...
  • Олимпиада 2012 / Тяжелая Атлетика / Женщины / 75кг / Финал / НТВ+ [03.08.20 ...
  • Олимпиада 2012 / Тяжелая Атлетика / Мужчины / 94кг / Финал / НТВ+Онлайн [04 ...
  • ХХХ Летние Олимпийские Игры / Лёгкая атлетика / День 5 / Утро / Спорт 1 [07 ...
  • ХХХ Летние Олимпийские Игры / Лёгкая атлетика / День 5 / Вечер / Спорт 1 [0 ...
  • ХХХ Летние Олимпийские Игры / Лёгкая атлетика / День 6 / Вечер / Спорт 1 [0 ...
  • ХХХ Летние Олимпийские Игры / Лёгкая атлетика / День 7 / Утро / Спорт 1 [09 ...
  • ХХХ Летние Олимпийские Игры / Лёгкая атлетика / День 8 / Вечер [10.08.2012, ...
  • Информация
    Посетители, находящиеся в группе Гости, не могут оставлять комментарии к данной публикации.