вход на сайт

Имя пользователя :
Пароль :

Восстановление пароля Регистрация
ХХХ Летние Олимпийские Игры / Волейбол / Мужчины / Четвертьфинал / Польша – Россия / Спорт 1 [08.08.2012, Волейбол, IPTV, MPEG]
Рейтинг:
(голосов: 1)



[img]{THEME}/images/logopost.png[/img]



Волейбол / Мужчины / Четвертьфинал / Польша – Россия

Вид спорта: Волейбол
Год выпуска: 08.08.2012
Язык комментариев: Русский
Участники: Польша – Россия

Описание: Лондон. Earls Court. Мужчины. Четвертьфинал.

Качество: IPTV
Продолжительность: 01:29:49

Формат: MPEG-PS
Видео кодек: MPEG2
Аудио кодек: MP2
Свойства видео: 720x576 (1024х576 - 16:9) 25.00 fps VBR ~ 2825 Kbps
Свойства аудио: 2 ch, 48 KHz, 192 kbps
"Mediainfo" ▼
General
Format : MPEG-PS
File size : 1.93 GiB
Duration : 1h 29mn
Overall bit rate : 3 077 Kbps
Video #224
ID : 224 (0xE0)
Format : MPEG Video
Format version : Version 2
Format profile : [email protected]
Format settings, BVOP : No
Format settings, Matrix : Default
Format settings, GOP : M=1, N=31
Duration : 1h 29mn
Bit rate mode : Variable
Bit rate : 2 824 Kbps
Nominal bit rate : 15.0 Mbps
Width : 720 pixels
Height : 576 pixels
Display aspect ratio : 16:9
Frame rate : 25.000 fps
Standard : PAL
Color space : YUV
Chroma subsampling : 4:2:0
Bit depth : 8 bits
Scan type : Interlaced
Scan order : Top Field First
Compression mode : Lossy
Bits/(Pixel*Frame) : 0.272
Stream size : 1.77 GiB (92%)
Audio #192
ID : 192 (0xC0)
Format : MPEG Audio
Format version : Version 1
Format profile : Layer 2
Duration : 1h 29mn
Bit rate mode : Constant
Bit rate : 192 Kbps
Channel(s) : 2 channels
Sampling rate : 48.0 KHz
Compression mode : Lossy
Stream size : 123 MiB (6%)


03083073382a466d7e0d8a3937c2e1a52a8f1fc9ХХХ Летние Олимпийские Игры / Волейбол / Мужчины / Четвертьфинал / Польша – Россия / Спорт 1 [08.08.2012, Волейбол, IPTV, MPEG] ХХХ Летние Олимпийские Игры / Волейбол / Мужчины / Четвертьфинал / Польша – Россия / Спорт 1 [08.08.2012, Волейбол, IPTV, MPEG] " />

Аплоадер: Админ, дата: 9-08-2012, 09:50, торрент скачан: 359 раз

Понравилась раздача? Посмотрите эти:
  • ХХХ Летние Олимпийские Игры / Волейбол / Мужчины / Финал / Россия - Бразили ...
  • Молодежный чемпионат мира 2012 (U-20). Четвертьфинал: Россия - Чехия [02.01 ...
  • Олимпиада 2012 / Тяжелая Атлетика / Мужчины / 94кг / Финал / НТВ+ [тяжелая ...
  • ХХХ Летние Олимпийские Игры / Лёгкая атлетика / День 3 / Вечер / HD Спорт [ ...
  • Олимпиада 2012 / Женщины, Мужчины / Плавание / Квалификация / НТВ+ [30.07.2 ...
  • ХХХ Летние Олимпийские Игры / Плавание / Мужчины, Женщины / День 3 - Финалы ...
  • The Olympic Games 2012 / Олимпийские игры 2012 [Спортивная гимнастика / Мно ...
  • The Olympic Games 2012 / Олимпийские игры 2012 [Спортивная гимнастика / Отд ...
  • ХХХ Летние Олимпийские Игры / Лёгкая атлетика / День 5 / Утро / Спорт 1 [07 ...
  • ХХХ Летние Олимпийские Игры / Лёгкая атлетика / День 5 / Вечер / Спорт 1 [0 ...
  • ХХХ Летние Олимпийские Игры / Лёгкая атлетика / День 6 / Вечер / Спорт 1 [0 ...
  • ХХХ Летние Олимпийские Игры / Лёгкая атлетика / День 7 / Утро / Спорт 1 [09 ...
  • ХХХ Летние Олимпийские Игры / Лёгкая атлетика / День 7 / Финалы и Полуфинал ...
  • ХХХ Летние Олимпийские Игры / Лёгкая атлетика / День 8 / Вечер [10.08.2012, ...
  • The Olympic Games 2012 / Олимпийские игры 2012 [Художественная гимнастика / ...
  • The Olympic Games 2012 / Олимпийские игры 2012 [Художественная гимнастика / ...
  • The Olympic Games 2012 / Олимпийские игры 2012 [Художественная гимнастика / ...
  • The Olympic Games 2012 / Олимпийские игры 2012 [Художественная гимнастика / ...
  • Олимпиада 2012 / Мужчины / Финал / Россия — Бразилия / НТВ+ [Волейбол, 12.0 ...
  • ХХХ Летние Олимпийские Игры 2012 / Волейбол / Мужчины / Финал / Россия — Бр ...
  • Информация
    Посетители, находящиеся в группе Гости, не могут оставлять комментарии к данной публикации.