вход на сайт

Имя пользователя :
Пароль :

Восстановление пароля Регистрация
ХХХ Летние Олимпийские Игры / Прыжки в воду / Мужчины / 3 Метра / Полуфинал и Финал [Прыжки в воду, 07.08.2012, 720p, H.264, RU, WEBRip]
Рейтинг:
(голосов: 1)



[img]{THEME}/images/logopost.png[/img]



Прыжки в воду / Мужчины / 3 Метра / Полуфинал и Финал

Вид спорта: Прыжки в воду
Год выпуска: 07.08.2012
Язык комментариев: Русский
Участники: Прыгуны в воду ОИ 2012

Описание: Соревнования по прыжкам в воду на летних Олимпийских играх 2012.

Качество: WEBRip
Продолжительность: 31мин + 1ч 3мин

Формат: MPEG-TS
Видео кодек: AVC
Аудио кодек: MP3
Свойства видео: 1280x720, 16:9, 25 fps, 2000 Kbps
Свойства аудио: 2 ch, stereo, 48 kHz, 96 kbps
"Mediainfo" ▼
General
Format : MPEG-TS
File size : 1 002 MiB
Duration : 1h 3mn
Overall bit rate : 2 203 Kbps
Video #69
ID : 69 (0x45)
Menu ID : 1 (0x1)
Format : AVC
Format/Info : Advanced Video Codec
Format profile : [email protected]
Format settings, CABAC : Yes
Format settings, ReFrames : 4 frames
Codec ID : 27
Duration : 1h 3mn
Bit rate : 2 000 Kbps
Width : 1 280 pixels
Height : 720 pixels
Display aspect ratio : 16:9
Frame rate : 25.000 fps
Color space : YUV
Chroma subsampling : 4:2:0
Bit depth : 8 bits
Scan type : Progressive
Bits/(Pixel*Frame) : 0.087
Stream size : 908 MiB (91%)
Writing library : x264 core 115 r2013 6fce39a
Encoding settings : cabac=1 / ref=1 / deblock=1:0:0 / analyse=0x3:0x13 / me=hex / subme=1 / psy=1 / psy_rd=1.00:0.00 / mixed_ref=0 / me_range=16 / chroma_me=1 / trellis=1 / 8x8dct=1 / cqm=0 / deadzone=21,11 / fast_pskip=1 / chroma_qp_offset=0 / threads=12 / sliced_threads=0 / nr=0 / decimate=1 / interlaced=0 / bluray_compat=0 / constrained_intra=0 / bframes=3 / b_pyramid=2 / b_adapt=1 / b_bias=0 / direct=1 / weightb=1 / open_gop=0 / weightp=2 / keyint=25 / keyint_min=2 / scenecut=40 / intra_refresh=0 / rc_lookahead=40 / rc=cbr / mbtree=1 / bitrate=2000 / ratetol=1.0 / qcomp=0.60 / qpmin=10 / qpmax=51 / qpstep=4 / vbv_maxrate=2000 / vbv_bufsize=7000 / nal_hrd=none / ip_ratio=1.40 / aq=1:1.00
Audio #70
ID : 70 (0x46)
Menu ID : 1 (0x1)
Format : MPEG Audio
Format version : Version 1
Format profile : Layer 3
Mode : Joint stereo
Mode extension : MS Stereo
Codec ID : 3
Duration : 1h 3mn
Bit rate mode : Constant
Bit rate : 96.0 Kbps
Channel(s) : 2 channels
Sampling rate : 44.1 KHz
Compression mode : Lossy
Delay relative to video : -25ms
Stream size : 43.7 MiB (4%)
Language : Russian


d33c063754bbf6f7f42f840399e5f00113ca5e84ХХХ Летние Олимпийские Игры / Прыжки в воду / Мужчины / 3 Метра / Полуфинал и Финал [Прыжки в воду, 07.08.2012, 720p, H.264, RU, WEBRip] ХХХ Летние Олимпийские Игры / Прыжки в воду / Мужчины / 3 Метра / Полуфинал и Финал [Прыжки в воду, 07.08.2012, 720p, H.264, RU, WEBRip] " />

Аплоадер: Админ, дата: 8-08-2012, 13:28, торрент скачан: 359 раз

Понравилась раздача? Посмотрите эти:
  • FLO / NRG [2012, Pop, Dance, MasterRip]
  • XXVII Всемирная летняя Универсиада / Прыжки в воду / Трамплин 1 м / Женщины ...
  • Чемпионат Испании 2012-13 / 34-й тур / Обзор Тура / НТВ+ [06.05.2013, 720p, ...
  • UFC The Ultimate 100 Knockouts - PPV [MMA,2013, HDTVRip 720p]
  • Rome 2013 / Финал / Рафаэль Надаль - Роджер Федерер / Rafael Nadal - Roger ...
  • ХХХ Летние Олимпийские Игры / Волейбол / Мужчины / Финал / Россия - Бразили ...
  • Чемпионат Европы 2012 / 1/4 финала / Чехия - Португалия / Спорт 1 HD [Футбо ...
  • Чемпионат Европы 2012 / Финал / Испания - Италия / Спорт 1 HD [Футбол, 01. ...
  • Товарищеский матч / США - Бразилия / ESPN [16.07.2012, Баскетбол, WEB-DLRip ...
  • Олимпиада 2012 / Тяжелая Атлетика / Мужчины / 94кг / Финал / НТВ+ [тяжелая ...
  • ХХХ Летние Олимпийские Игры / Лёгкая атлетика / День 3 / Вечер / HD Спорт [ ...
  • Олимпиада 2012 / Легкая Атлетика / День 3 / Вечер / EuroSport [Легкая Атлет ...
  • Mylene Farmer / Du Temps [2011, Pop, HDTVRip]
  • Mylene Farmer / Bleu Noir [2011, Pop, HDTVRip]
  • The Dream Team - NBA TV Documentary [Баскетбол,13.06.2012, HDTVRip/720p, MP ...
  • Товарищеский матч / Сборная США - Сборная Доминиканской республики / ESPN [ ...
  • Церемония открытия летних Олимпийских игр 2012 в Лондоне. НТВ + [27.08.2012 ...
  • ХХХ Летние Олимпийские Игры / Плавание / Мужчины, Женщины / День 3 - Финалы ...
  • Олимпиада 2012 / Мужчины / Прыжки на батуте / Финал / НТВ+ [03.08.2012, SD, ...
  • ХХХ Летние Олимпийские Игры / Волейбол / Мужчины / Четвертьфинал / Польша – ...
  • ХХХ Летние Олимпийские Игры / Лёгкая атлетика / День 8 / Вечер [10.08.2012, ...
  • ХХХ Летние Олимпийские Игры 2012 / Волейбол / Мужчины / Финал / Россия — Бр ...
  • Олимпиада 2012 [Мужчины / Прыжки на батуте / Финал, 2012, SATRip]
  • Чемпионат Испании 2012-13 / Тур 14 / Реал М - Атлетико М [футбол, 02.12.201 ...
  • Английская Премьер-Лига 2012-13 / Тур 15 / Рединг - Манчестер Юнайтед [футб ...
  • Информация
    Посетители, находящиеся в группе Гости, не могут оставлять комментарии к данной публикации.