вход на сайт

Имя пользователя :
Пароль :

Восстановление пароля Регистрация
ХХХ Летние Олимпийские Игры / Лёгкая атлетика / День 5 / Утро / Спорт 1 [07.08.2012 г., Лёгкая атлетика, IPTV, MPEG]
Рейтинг:
(голосов: 1)



[img]{THEME}/images/logopost.png[/img]



Лёгкая атлетика / День 5 / Утро
Вид спорта: Лёгкая атлетика
Год выпуска: 07.08.2012
Язык комментариев: Русский
Участники: Атлеты

Описание: Лондон. Легкая атлетика. Olympic Park - Olympic Stadium. 5-й день. Утро.

Качество: IPTV
Продолжительность: 2:50:41

Формат: MPEG-PS
Видео кодек: MPEG2
Аудио кодек: MP2
Свойства видео: 720x576 (1024x576 - 16:9) 25.00 fps VBR ~ 2725 Kbps
Свойства аудио: 2 ch, stereo, 48 kHz, 192 kbps
"MediaInfo" ▼
General
Format : MPEG-PS
File size : 3.55 GiB
Duration : 2h 50mn
Overall bit rate : 2 975 Kbps
Video #224
ID : 224 (0xE0)
Format : MPEG Video
Format version : Version 2
Format profile : [email protected]
Format settings, BVOP : Yes
Format settings, Matrix : Default
Format settings, GOP : M=3, N=18
Duration : 2h 50mn
Bit rate mode : Variable
Bit rate : 2 724 Kbps
Nominal bit rate : 15.0 Mbps
Width : 720 pixels
Height : 576 pixels
Display aspect ratio : 16:9
Frame rate : 25.000 fps
Standard : PAL
Color space : YUV
Chroma subsampling : 4:2:0
Bit depth : 8 bits
Scan type : Interlaced
Scan order : Top Field First
Compression mode : Lossy
Bits/(Pixel*Frame) : 0.263
Stream size : 3.25 GiB (92%)
Audio #192
ID : 192 (0xC0)
Format : MPEG Audio
Format version : Version 1
Format profile : Layer 2
Duration : 2h 50mn
Bit rate mode : Constant
Bit rate : 192 Kbps
Channel(s) : 2 channels
Sampling rate : 48.0 KHz
Compression mode : Lossy
Stream size : 234 MiB (6%)


ae045ea29d5fe442288196abab211a5462ba2730ХХХ Летние Олимпийские Игры / Лёгкая атлетика / День 5 / Утро / Спорт 1 [07.08.2012 г., Лёгкая атлетика, IPTV, MPEG] ХХХ Летние Олимпийские Игры / Лёгкая атлетика / День 5 / Утро / Спорт 1 [07.08.2012 г., Лёгкая атлетика, IPTV, MPEG] " />

Аплоадер: Админ, дата: 8-08-2012, 11:51, торрент скачан: 359 раз

Понравилась раздача? Посмотрите эти:
  • XXVII Всемирная летняя Универсиада / Легкая атлетика / День 1 / Утро / Росс ...
  • XXVII Всемирная летняя Универсиада / Легкая атлетика / День 2 / Утро / Росс ...
  • XXVII Всемирная летняя Универсиада / Легкая атлетика / День 2 / Вечер / Спо ...
  • Чемпионат мира по легкой атлетике 2013 / Москва (Россия) / День 1 / Утро / ...
  • Чемпионат мира по легкой атлетике 2013 / Москва (Россия) / День 1 / День / ...
  • Чемпионат мира по легкой атлетике 2013 / Москва (Россия) / День 2 / Утро / ...
  • Чемпионат мира по легкой атлетике 2013 / Москва (Россия) / День 3 / Утро / ...
  • Чемпионат мира по легкой атлетике 2013 / Москва (Россия) / День 4 / Утро / ...
  • Чемпионат мира по легкой атлетике 2013 / Москва (Россия) / День 6 / Утро / ...
  • Чемпионат мира по легкой атлетике 2013 / Москва (Россия) / День 7 / Утро / ...
  • Олимпиада 2012 / Тяжелая Атлетика / Мужчины / 94кг / Финал / НТВ+ [тяжелая ...
  • ХХХ Летние Олимпийские Игры / Лёгкая атлетика / День 3 / Вечер / HD Спорт [ ...
  • Олимпиада 2012 / Легкая Атлетика / День 3 / Вечер / EuroSport [Легкая Атлет ...
  • Технологии спорта: Легкая атлетика [Легкая атлетика, 2008, IPTVRip]
  • ХХХ Летние Олимпийские Игры / Лёгкая атлетика / День 5 / Вечер / Спорт 1 [0 ...
  • ХХХ Летние Олимпийские Игры / Волейбол / Мужчины / Четвертьфинал / Польша – ...
  • ХХХ Летние Олимпийские Игры / Лёгкая атлетика / День 6 / Вечер / Спорт 1 [0 ...
  • ХХХ Летние Олимпийские Игры / Лёгкая атлетика / День 7 / Утро / Спорт 1 [09 ...
  • ХХХ Летние Олимпийские Игры / Лёгкая атлетика / День 7 / Финалы и Полуфинал ...
  • ХХХ Летние Олимпийские Игры / Лёгкая атлетика / День 8 / Вечер [10.08.2012, ...
  • Информация
    Посетители, находящиеся в группе Гости, не могут оставлять комментарии к данной публикации.