вход на сайт

Имя пользователя :
Пароль :

Восстановление пароля Регистрация
Олимпиада 2012 / Женщины, Мужчины / Плавание / Квалификация / НТВ+ [30.07.2012, SD, XviD, RU, SAT]
Рейтинг:
(голосов: 1)



[img]{THEME}/images/logopost.png[/img]



ХХХ летние Олимпийские игры

Вид спорта: Плавание
Год выпуска: 30.07.2012
Язык комментариев: Русский (Денис Панкратов)
Участники: Плавцы
Описание: Олимпиада 2012 / Женщины, Мужчины / Плавание / Квалификация
Качество: SATRip
Продолжительность: 01:05:46
Формат: AVI
Видео кодек: XviD
Аудио кодек: MP3
Свойства видео: 704x400 (16/9), 25,000fps, 1800 Kbps
Свойства аудио: 48 kHz, 2 ch, 128.00 kbps
Тех. описание ▼Format : AVI
Format/Info : Audio Video Interleave
File size : 911 MiB
Duration : 1h 5mn
Overall bit rate : 1 937 Kbps
Writing library : VirtualDub build 34703/release

Video
ID : 0
Format : MPEG-4 Visual
Format profile : Advanced [email protected]
Format settings, BVOP : 2
Format settings, QPel : No
Format settings, GMC : No warppoints
Format settings, Matrix : Default (MPEG)
Codec ID : XVID
Codec ID/Hint : XviD
Duration : 1h 5mn
Bit rate : 1 800 Kbps
Width : 704 pixels
Height : 400 pixels
Display aspect ratio : 16:9
Frame rate : 25.000 fps
Color space : YUV
Chroma subsampling : 4:2:0
Bit depth : 8 bits
Scan type : Progressive
Compression mode : Lossy
Bits/(Pixel*Frame) : 0.256
Stream size : 847 MiB (93%)
Writing library : XviD 1.2.1 (UTC 2008-12-04)

Audio
ID : 1
Format : MPEG Audio
Format version : Version 1
Format profile : Layer 3
Mode : Joint stereo
Mode extension : MS Stereo
Codec ID : 55
Codec ID/Hint : MP3
Duration : 1h 5mn
Bit rate mode : Constant
Bit rate : 128 Kbps
Channel(s) : 2 channels
Sampling rate : 48.0 KHz
Compression mode : Lossy
Stream size : 60.2 MiB (7%)
Alignment : Split accross interleaves
Interleave, duration : 40 ms (1.00 video frame)
Interleave, preload duration : 500 ms



Стол заказов POWER | Отзывы | Вступление в POWER
Мои раздачи




89e16a4c00b2deed2a88c792c49b4dac3050a46aОлимпиада 2012 / Женщины, Мужчины / Плавание / Квалификация / НТВ+ [30.07.2012, SD, XviD, RU, SAT] Олимпиада 2012 / Женщины, Мужчины / Плавание / Квалификация / НТВ+ [30.07.2012, SD, XviD, RU, SAT] " />

Аплоадер: Админ, дата: 30-07-2012, 22:57, торрент скачан: 359 раз

Понравилась раздача? Посмотрите эти:
  • Чемпионат Европы 2012 / Группа C / 1-й тур / Ирландия — Хорватия / ТРК Футб ...
  • Олимпиада 2012 / Мужчины / Группа D / 1-й тур / Испания — Япония / НТВ+ [Фу ...
  • Олимпиада 2012 / Мужчины / Группа A / 1-й тур / Великобритания — Сенегал / ...
  • Олимпиада 2012 / Мужчины / Группа С / 1-й тур / Бразилия - Египет / НТВ+ [Ф ...
  • Олимпиада 2012/ Футбол / Мужчины / Группа C / 2-й тур / Бразилия - Беларусь ...
  • Олимпиада 2012 / Футбол / Мужчины / Группа A / 3-й тур / Великобритания - У ...
  • Олимпиада 2012 / Тяжелая Атлетика / Мужчины / 94кг / Финал / НТВ+ [тяжелая ...
  • Олимпиада 2012 / Мужчины / 1/4 Финала / Бразилия - Гондурас / НТВ+ [Футбол, ...
  • Олимпиада 2012 / Легкая Атлетика / День 3 / Вечер / EuroSport [Легкая Атлет ...
  • Олимпиада 2012 / Мужчины / Матч за 3-е место / Корея - Япония / НТВ+ [Футбо ...
  • Формула 1 / Сезон 2012 / Этап 18 из 20 / Гран-при ОАЭ (Абу-Даби) / Квалифик ...
  • Чемпионат Англии 2011-2012 / Championship / 45-й Тур / Обзор Матчей / НТВ+ ...
  • Олимпийский квалификационный турнир 2012 / Венесуэла / Мужчины / Группа C / ...
  • ХХХ Летние Олимпийские Игры / Плавание / Мужчины, Женщины / День 3 - Финалы ...
  • Олимпиада 2012 / Тяжелая атлетика / Женщины до 63 кг / НТВ + [Тяжелая атлет ...
  • Олимпиада 2012 / Тяжелая Атлетика / Женщины / 75кг / Финал / НТВ+ [03.08.20 ...
  • Олимпиада 2012 / Плавание / Финалы / День 7 [плавание, 04.08.2012, SATRip]
  • Олимпиада 2012 / Мужчины / Прыжки на батуте / Финал / НТВ+ [03.08.2012, SD, ...
  • ХХХ Летние Олимпийские Игры / Лёгкая атлетика / День 8 / Вечер [10.08.2012, ...
  • Олимпиада 2012 / Мужчины / Финал / Бразилия - Мексика / НТВ+ [Футбол, 11.08 ...
  • Информация
    Посетители, находящиеся в группе Гости, не могут оставлять комментарии к данной публикации.