вход на сайт

Имя пользователя :
Пароль :

Восстановление пароля Регистрация
Церемония открытия летних Олимпийских игр 2012 в Лондоне. НТВ + [27.08.2012, H.264, RU, HDTVRip]
Рейтинг:
(голосов: 1)



[img]{THEME}/images/logopost.png[/img]




Церемония открытия летних олимпийских игр 2012 в Лондоне

Вид спорта:: Все виды задействованные на Олимпийских играх
Год выпуска: 27.07.2012
Язык комментариев: Русский (Игорь Швецов - Анна Дмитриева)
Участники: Страны МОК

Описание: Церемония открытия летних олимпийских игр 2012 в Лондоне, прошедшая на Олимпийском Стадионе 27 июля 2012 года.

Качество: HDTVRip
Продолжительность:03:59:17

Формат: MKV
Видео кодек:H264
Аудио кодек: AC3
Свойства видео: 1280x720 (16/9), 25,000fps, 3 Мбит/сек
Свойства аудио: 128 Kbps, 48 KHz, 2 channels
"MediaInfo:" ▼Text
Format : Matroska
Format version : Version 2
File size : 5.24 GiB
Duration : 3h 59mn
Overall bit rate : 3 133 Kbps
Writing application : HandBrake 0.9.8
Writing library : libmkv 0.6.5

Video
ID : 1
Format : AVC
Format/Info : Advanced Video Codec
Format profile : [email protected]
Format settings, CABAC : No
Format settings, ReFrames : 1 frame
Codec ID : V_MPEG4/ISO/AVC
Duration : 3h 59mn
Bit rate : 3 000 Kbps
Width : 1 280 pixels
Height : 720 pixels
Display aspect ratio : 16:9
Frame rate mode : Variable
Frame rate : 25.000 fps
Color space : YUV
Chroma subsampling : 4:2:0
Bit depth : 8 bits
Scan type : Progressive
Bits/(Pixel*Frame) : 0.130
Stream size : 4.92 GiB (94%)
Writing library : x264 core 120
Encoding settings : cabac=0 / ref=1 / deblock=1:0:0 / analyse=0x1:0x111 / me=umh / subme=6 / psy=1 / psy_rd=1.00:0.00 / mixed_ref=0 / me_range=48 / chroma_me=1 / trellis=0 / 8x8dct=0 / cqm=0 / deadzone=21,11 / fast_pskip=1 / chroma_qp_offset=-2 / threads=3 / sliced_threads=0 / nr=0 / decimate=1 / interlaced=0 / bluray_compat=0 / constrained_intra=0 / bframes=0 / weightp=1 / keyint=250 / keyint_min=25 / scenecut=40 / intra_refresh=0 / rc_lookahead=10 / rc=abr / mbtree=1 / bitrate=3000 / ratetol=1.0 / qcomp=0.60 / qpmin=3 / qpmax=69 / qpstep=4 / ip_ratio=1.40 / aq=1:1.30
Language : English
Default : Yes
Forced : No
Color primaries : BT.709-5, BT.1361, IEC 61966-2-4, SMPTE RP177
Transfer characteristics : BT.709-5, BT.1361
Matrix coefficients : BT.709-5, BT.1361, IEC 61966-2-4 709, SMPTE RP177

Audio
ID : 2
Format : AC-3
Format/Info : Audio Coding 3
Mode extension : CM (complete main)
Codec ID : A_AC3
Duration : 3h 59mn
Bit rate mode : Constant
Bit rate : 128 Kbps
Channel(s) : 2 channels
Channel positions : Front: L R
Sampling rate : 48.0 KHz
Bit depth : 16 bits
Compression mode : Lossy
Stream size : 219 MiB (4%)
Language : Russian
Default : Yes
Forced : No

1ae6780d69359f3c667240913664ca3e90696da3Церемония открытия летних Олимпийских игр 2012 в Лондоне. НТВ + [27.08.2012, H.264, RU, HDTVRip] Церемония открытия летних Олимпийских игр 2012 в Лондоне. НТВ + [27.08.2012, H.264, RU, HDTVRip] " />

Аплоадер: Админ, дата: 28-07-2012, 17:04, торрент скачан: 359 раз

Понравилась раздача? Посмотрите эти:
  • Чемпионат Испании 2012-13 / 34-й тур / Обзор Тура / НТВ+ [06.05.2013, 720p, ...
  • UFC - Best Of 2012 Year In Review[MMA,2013, BDRip 540p]
  • Футбольный клуб / Чемпионат Европы 2012 / НТВ+ [Футбол, 08.06.2012, HDTVRip ...
  • Чемпионат Европы 2012 / Группа C / 1-й тур / Ирландия — Хорватия / Спорт 1 ...
  • Чемпионат Европы 2012 / 1/4 финала / Чехия - Португалия / Спорт 1 HD [Футбо ...
  • Все голы Евро-2012 [Футбол,2012, HDTVRip]
  • Церемония закрытия Летних Олимпийских Игр 2012 / Closing Ceremony of The Ol ...
  • Английская Премьер-Лига 2012-13 / Тур 20 / Арсенал - Ньюкасл Юнайтед [футбо ...
  • Jon Anderson / The Contemporary Youth Orchestra [2010, Art-Rock, Contempora ...
  • Английская Премьер-Лига 2012-13 / Тур 19 / Манчестер Юнайтед - Ньюкасл Юнай ...
  • Лига Чемпионов 2011-12 / 1/2 финала / Первый матч / Челси (Англия) - Барсел ...
  • Лига Чемпионов 2011-12 / 1/2 финала / Ответный матч / Реал (Испания) - Бава ...
  • The Dream Team - NBA TV Documentary [Баскетбол,13.06.2012, HDTVRip/720p, MP ...
  • Церемония открытия летних Олимпийских игр 2012 в Лондоне. Первый канал. [27 ...
  • Церемония открытия летних Олимпийских игр 2012 в Лондоне / Спорт 1 [27.07.2 ...
  • Церемония открытия летних Олимпийских игр 2012 в Лондоне / Спорт 1 [27.07.2 ...
  • Церемония открытия летних олимпийских игр 2012 в Лондоне / Спорт 1HD [Олимп ...
  • ХХХ Летние Олимпийские Игры / Прыжки в воду / Мужчины / 3 Метра / Полуфинал ...
  • Церемония закрытия летних Олимпийских Игр Лондон 2012 | НТВ+ [Олимпиада, 12 ...
  • Церемония закрытия Летних Олимпийских Игр 2012 / Closing Ceremony of The Ol ...
  • Информация
    Посетители, находящиеся в группе Гости, не могут оставлять комментарии к данной публикации.