вход на сайт

Имя пользователя :
Пароль :

Восстановление пароля Регистрация
WWE Extreme Rules + Preshow [19.05.2013, Рестлинг, WEB-DL-HDTV/720p, MP4-MKV, EN]
Рейтинг:
(голосов: 1)



[img]{THEME}/images/logopost.png[/img]





WWE Extreme Rules 2013

Вид спорта: Рестлинг
Год выпуска: 19.05.2013
Язык комментариев: Английский
Участники: WWE Superstars
Описание: Extreme Rules 2013
Preshow ▼

Продолжительность: 00:28:27
Качество: WEB-DL
Формат: MP4
Видео кодек: H.264
Аудио кодек: AAC
Свойства видео: 1280x720 (16:9), 29,970 fps, ~2869 kbps, 0.104 bit/pixel
Свойства аудио: 44.1 khz, 2 ch, ~192 kbpsСкриншоты ▼
Тех. данные ▼E:ÐåñòëèíãWWE.Extreme.Rules.2013 720pWWE.Extreme.Rules.2013.Pre-Show.720p.WEB-DL.x264-NOGRP.mp4
General
Complete name : E:ÐåñòëèíãWWE.Extreme.Rules.2013 720pWWE.Extreme.Rules.2013.Pre-Show.720p.WEB-DL.x264-NOGRP.mp4
Format : MPEG-4
Format profile : Base Media / Version 2
Codec ID : mp42
File size : 623 MiB
Duration : 28mn 26s
Overall bit rate mode : Variable
Overall bit rate : 3 064 Kbps
Encoded date : UTC 2013-05-19 01:49:45
Tagged date : UTC 2013-05-19 01:49:45
gsst : 0
gstd : 1707106
gssd : B400F704BMH1369015516166601
gshh : r8---sn-xjpm-q0ns.c.youtube.com
Video #1
ID : 1
Format : AVC
Format/Info : Advanced Video Codec
Format profile : [email protected]
Format settings, CABAC : Yes
Format settings, ReFrames : 1 frame
Codec ID : avc1
Codec ID/Info : Advanced Video Coding
Duration : 28mn 26s
Bit rate : 2 869 Kbps
Maximum bit rate : 8 892 Kbps
Width : 1 280 pixels
Height : 720 pixels
Display aspect ratio : 16:9
Frame rate mode : Constant
Frame rate : 29.970 fps
Color space : YUV
Chroma subsampling : 4:2:0
Bit depth : 8 bits
Scan type : Progressive
Bits/(Pixel*Frame) : 0.104
Stream size : 584 MiB (94%)
Tagged date : UTC 2013-05-19 01:51:36
Audio #2
ID : 2
Format : AAC
Format/Info : Advanced Audio Codec
Format profile : LC
Codec ID : 40
Duration : 28mn 26s
Bit rate mode : Variable
Bit rate : 192 Kbps
Maximum bit rate : 201 Kbps
Channel(s) : 2 channels
Channel positions : Front: L R
Sampling rate : 44.1 KHz
Compression mode : Lossy
Stream size : 39.1 MiB (6%)
Title : IsoMedia File Produced by Google, 5-11-2011
Encoded date : UTC 2013-05-19 01:51:00
b4cce17d665c88be46d392d08ff5885e0e240276WWE Extreme Rules + Preshow [19.05.2013, Рестлинг, WEB-DL-HDTV/720p, MP4-MKV, EN] WWE Extreme Rules + Preshow [19.05.2013, Рестлинг, WEB-DL-HDTV/720p, MP4-MKV, EN] " />

Аплоадер: Админ, дата: 21-05-2013, 10:19, торрент скачан: 359 раз

Понравилась раздача? Посмотрите эти:
  • NBA 2013-2014 / RS / Highlights [Баскетбол, 04.11.2013, WEB-DL HD/720p, MP4 ...
  • NHL 12/13 / Stanley Cup Playoffs / West / Final / Game 2 / Los Angeles King ...
  • NHL 12/13 / Stanley Cup Playoffs / Highlights Playoff Edition [Хоккей, 03.0 ...
  • NBA Playoffs 2013 / Highlights Playoff Edition [Баскетбол, 05.05.2013, WEB ...
  • NHL 12/13 / Stanley Cup Playoffs / Highlights Playoff Edition [Хоккей, 05.0 ...
  • NHL 12/13 / Stanley Cup Playoffs / Highlights Playoff Edition [Хоккей, 06.0 ...
  • NBA Playoffs 2013 / Highlights Playoff Edition [Баскетбол, 06.05.2013, WEB ...
  • NBA Playoffs 2013 / Highlights Playoff Edition [Баскетбол, 07.05.2013, WEB ...
  • NHL 12/13 / Stanley Cup Playoffs / Highlights Playoff Edition [Хоккей, 07.0 ...
  • NBA Playoffs 2013 / East / Semifinal / Game 2 / Indiana Pacers vs New York ...
  • NHL 12/13 / Stanley Cup Playoffs / Highlights Playoff Edition [Хоккей, 09.0 ...
  • NBA Playoffs 2013 / Highlights Playoff Edition [Баскетбол, 08.05.2013, WEB ...
  • NBA Playoffs 2013 / Highlights Playoff Edition [Баскетбол, 10.05.2013, WEB ...
  • NHL 12/13 / Stanley Cup Playoffs / Highlights Playoff Edition [Хоккей, 10.0 ...
  • NBA Playoffs 2013 / Highlights Playoff Edition [Баскетбол, 11.05.2013, WEB ...
  • NHL 12/13 / Stanley Cup Playoffs / East / Semifinals / Game 1 / New York Ra ...
  • NHL 12/13 / Stanley Cup Playoffs / East / Semifinals / Game 1 / New York Ra ...
  • WWE Extreme Rules 2013 [Рестлинг, 19.05.2013, DVDRip, AVI/XviD, EN]
  • WWE Extreme Rules PPV 2013 [2013, Wrestling, HDTVRip]
  • Copa Libertadores 2013 / 2-й раунд / Обзор / Спорт 1 [Футбол, 08.04.2013, 7 ...
  • NBA 2012-2013 / RS / Minnesota Timberwolves @ Portland Trail Blazers [Баск ...
  • WWE Extreme Rules 2012 [2012 г., Рестлинг, HDTVRip x264]
  • LeBron James 2012 Finals MVP [Баскетбол, 24.06.2012, HD, 720p, H.264, EN, H ...
  • Top 10 Plays of the 2012 NBA Finals [Баскетбол, 25.06.2012, HD, 720p, H.264 ...
  • Top 10 Dunks of the 2012 NBA Finals [Баскетбол, 25.06.2012, HD, 720p, H.264 ...
  • Информация
    Посетители, находящиеся в группе Гости, не могут оставлять комментарии к данной публикации.