вход на сайт

Имя пользователя :
Пароль :

Восстановление пароля Регистрация
UFC On Fuel - Munoz vs Weidman [MMA, 11.07.2012, HDTVRip, EN]
Рейтинг:
(голосов: 1)



[img]{THEME}/images/logopost.png[/img]



UFC On Fuel
Андеркарт
Munoz vs Weidman
Вид спорта: MMA
Год выпуска: 11.07.2012
Язык комментариев: Английский
Участники: Бойцы
Описание: UFC On Fuel - Munoz vs Weidman
Качество: HDTVRip
Продолжительность ▼2h 15mnСписок боев ▼Main card:
* Lightweight bout: Rafael dos Anjos vs Anthony Njokuani
* Bantamweight bout: T.J. Dillashaw vs Vaughan Lee
* Middleweight bout: Karlos Vemola vs Francis Carmont
* Welterweight bout: Aaron Simpson vs Kenny Robertson
* Light Heavyweight bout: James Te-Huna vs Joey Beltran
* Middleweight bout: Mark Munoz vs Chris Weidman
Формат: AVI
Видео кодек: h.264
Аудио кодек: MP3
Свойства видео: 624x352 (16:9), 25.000 fps, 1 101kbps
Свойства аудио: 48.0Hz, 2 channels, stereo, 128kbps
Тех. описание ▼
Format : AVI
Format/Info : Audio Video Interleave
File size : 1.17 GiB
Duration : 2h 15mn
Overall bit rate mode : Variable
Overall bit rate : 1 237 Kbps

Video
ID : 0
Format : AVC
Format/Info : Advanced Video Codec
Format profile : [email protected]
Format settings, CABAC : Yes
Format settings, ReFrames : 2 frames
Codec ID : H264
Duration : 2h 15mn
Bit rate mode : Variable
Bit rate : 1 101 Kbps
Maximum bit rate : 2 200 Kbps
Width : 624 pixels
Height : 352 pixels
Display aspect ratio : 16:9
Frame rate : 25.000 fps
Color space : YUV
Chroma subsampling : 4:2:0
Bit depth : 8 bits
Scan type : Progressive
Bits/(Pixel*Frame) : 0.201
Stream size : 1.05 GiB (89%)

Audio
ID : 1
Format : MPEG Audio
Format version : Version 1
Format profile : Layer 3
Mode : Joint stereo
Mode extension : MS Stereo
Codec ID : 55
Codec ID/Hint : MP3
Duration : 2h 15mn
Source duration : 2h 15mn
Bit rate mode : Constant
Bit rate : 128 Kbps
Channel(s) : 2 channels
Sampling rate : 48.0 KHz
Compression mode : Lossy
Stream size : 124 MiB (10%)


Стол заказов POWER | Отзывы | Вступление в POWER
Мои раздачи


ebdf9fa7914cdd4701b65cbcffe0be0bd3c0ab9bUFC On Fuel - Munoz vs Weidman [MMA, 11.07.2012, HDTVRip, EN] UFC On Fuel - Munoz vs Weidman [MMA, 11.07.2012, HDTVRip, EN] " />

Аплоадер: Админ, дата: 12-07-2012, 13:01, торрент скачан: 359 раз

Понравилась раздача? Посмотрите эти:
  • Strikeforce: Shamrock vs. Gracie [MMA, 10.03.2006, HDTVRip]
  • UFC 161: Evans vs Henderson -- Main Card [MMA, 15.06.2013, HDTV 720p]
  • UFC 162: Silva vs. Weidman - Prelims [2013, MMA, HDTVRip 720p]
  • UFC 160/MAIN Card [MMA, 25.05.2013, DSRRip]
  • UFC 158 - St-Pierre vs Diaz Weigh-in / Взвешивание перед турниром UFC 158 - ...
  • UFC on FX 3 / Preliminary Card [MMA, 08.06.2012, HDTVRip]
  • UFC 148 - Silva vs Sonnen II Weigh-in / Взвешивание перед турниром UFC 148 ...
  • UFC on Fuel TV 4 / Facebook Preliminary Card [MMA, 11.07.2012, WEBRip]
  • UFC on FX 6 / Preliminary Card [MMA, 15.12.2012, HDTVRip]
  • UFC 116 - Lesnar Carwin [MMA, 03.07.2010, HDTVRip]
  • UFC 119 - Mir vs Cro Cop [MMA, 25.09.2010, HDTVRip]
  • UFC 122: Marquardt vs. Okami [MMA, 13.11.2010, HDTVRip]
  • UFC 131 / Dos Santos vs Carwin / ESPNHD [MMA, 11.06.2011, HDTVRip x264]
  • UFC 138: Leben vs Munoz PPV [2011 г., MMA, HDTVRip x264]
  • UFC 139 - Shogun vs Henderson Weigh-in / Взвешивание перед турниром UFC 139 ...
  • UFC 139 / Preliminary Card / Spike HD [MMA, 19.11.2011, HDTVRip]
  • UFC on Fox 2 - Evans vs Davis Weigh-in / Взвешивание перед турниром UFC on ...
  • UFC 145 - Jones vs Evans Weigh-in / Взвешивание перед турниром UFC 145 - Jo ...
  • UFC on Fox 3 - Diaz vs Miller Weigh-in / Взвешивание перед турниром UFC on ...
  • UFC on Fuel TV - Korean Zombie vs Poirier Weigh-in / Взвешивание перед турн ...
  • UFC 146 / Dos Santos vs Mir [MMA, 26.05.2012, HDTVRip x264]
  • UFC on Fuel TV 4 - Munoz vs Weidman Weigh-in / Взвешивание перед турниром U ...
  • UFC on Fuel TV 4 / Munoz vs Weidman [MMA, 11.07.2012, HDTV 720p]
  • UFC 149 / Preliminary Card / FX HD [MMA, 21.07.2012, HDTVRip]
  • UFC on Fuel TV 5 / Facebook Preliminary Card [MMA, 29.09.2012, WEBRip]
  • Информация
    Посетители, находящиеся в группе Гости, не могут оставлять комментарии к данной публикации.