вход на сайт

Имя пользователя :
Пароль :

Восстановление пароля Регистрация
Молодежный чемпионат мира 2012 (U-20). Четвертьфинал: Россия - Чехия [02.01.2012, Хоккей, SATRip/XviD/НТВ+]
Рейтинг:
(голосов: 1)



[img]{THEME}/images/logopost.png[/img]



Молодежный чемпионат мира 2012 (U-20).
Четвертьфинал: Россия - Чехия


Вид спорта:Хоккей
Дата выхода в эфир:02.01.2012
Язык комментариев:Русский (Юрий Розанов и Сергей Крабу)
Участники:Россия- Чехия

Описание:Матч МЧМ между командами Россия - Чехия
Автор рипа: IlVarsh

Качество:SATRip
Продолжительность:00:38:24 + 00:38:04 + 00:46:12

Формат:AVI
Видео кодек:XviD
Аудио кодек:MP3
Видео:704x400 (16:9), 25.000 fps, ~1800 kbps
Аудио:48 kHz, 2ch, ~128 kbps
"MediaInfo" ▼
Format : AVI
Format/Info : Audio Video Interleave
File size : 554 MiB
Duration : 38mn 24s
Overall bit rate : 2 017 Kbps
Writing application : GOM ENCODER (GAviWriter 1.0)
Video #0
ID : 0
Format : MPEG-4 Visual
Format profile : [email protected]
Format settings, BVOP : No
Format settings, QPel : No
Format settings, GMC : No warppoints
Format settings, Matrix : Default (H.263)
Codec ID : XVID
Codec ID/Hint : XviD
Duration : 38mn 23s
Bit rate : 1 877 Kbps
Width : 704 pixels
Height : 400 pixels
Display aspect ratio : 16:9
Frame rate : 25.000 fps
Color space : YUV
Chroma subsampling : 4:2:0
Bit depth : 8 bits
Scan type : Progressive
Compression mode : Lossy
Bits/(Pixel*Frame) : 0.267
Stream size : 515 MiB (93%)
Writing library : Lavc52.110.0
Audio #1
ID : 1
Format : MPEG Audio
Format version : Version 1
Format profile : Layer 3
Mode : Joint stereo
Mode extension : MS Stereo
Codec ID : 55
Codec ID/Hint : MP3
Duration : 38mn 24s
Bit rate mode : Constant
Bit rate : 128 Kbps
Channel(s) : 2 channels
Sampling rate : 48.0 KHz
Compression mode : Lossy
Stream size : 35.2 MiB (6%)
Alignment : Aligned on interleaves
Interleave, duration : 24 ms (0.60 video frame)
Interleave, preload duration : 1152 ms



199e4f5b9e003b232282b0667bd90eb848f4bf04Молодежный чемпионат мира 2012 (U-20). Четвертьфинал: Россия - Чехия [02.01.2012, Хоккей, SATRip/XviD/НТВ+] Молодежный чемпионат мира 2012 (U-20). Четвертьфинал: Россия - Чехия [02.01.2012, Хоккей, SATRip/XviD/НТВ+] " />

Аплоадер: Админ, дата: 3-01-2012, 11:39, торрент скачан: 359 раз

Понравилась раздача? Посмотрите эти:
  • Молодёжный чемпионат мира 2014 (U-20) / 1/4 финала / США - Россия / НТВ+ HD ...
  • Молодёжный чемпионат мира 2014 (U-20) / Матч за 3-е место / Россия - Канада ...
  • Чемпионат Мира по хоккею 2013 / Группа В / Россия - США / Россия 2 [Хоккей, ...
  • Чемпионат Италии 2012-13 / 36-й тур / Рома — Кьево / НТВ+ [07.05.2013, SD, ...
  • Чемпионат Мира по хоккею 2013 / Четвертьфинал / Россия - США / 1 HD [Хокке ...
  • Чемпионат Мира по хоккею 2013 (U-18) / 1/2 финала / Россия - США [хоккей, 2 ...
  • Хоккей / Чемпионат Мира 2012 (U-20) / 1/2 финала / Канада - Россия / 2012 / ...
  • Чемпионат Испании 2011-12 / 36-й тур / Реал Мадрид - Севилья / НТВ+ [Футбол ...
  • Чемпионат Испании 2011-12 / 20-й тур / Атлетик - Реал / НТВ+ [Футбол, 02.05 ...
  • Чемпионат мира 12, ФИНАЛ. Россия - Словакия [20.05.2012, Хоккей,RU/Первый, ...
  • Чемпионат мира 12, ФИНАЛ. Россия - Словакия [20.05.2012, Хоккей,RU/Первый, ...
  • Чемпионат Европы 2012 / Группа C / 1-й тур / Ирландия — Хорватия / ТРК Футб ...
  • Чемпионат Европы 2012 / 1/4 финала / Чехия - Португалия / Россия 1 [21.06.2 ...
  • Молодежный Чемпионат мира по хоккею 2013 / 1/2 финала / Канада - США [хокке ...
  • Молодежный Чемпионат мира по хоккею 2013 / Матч за третье место / Канада - ...
  • Молодежный Чемпионат мира по хоккею 2013 / Финал / Швеция - США [хоккей, 05 ...
  • Молодежный чемпионат мира U20 / Финал / Канада - Россия [06.01.2011, Хоккей ...
  • Чемпионат Англии 2011-12 / 31 тур / Ньюкасл - Ливерпуль / Спорт 1 [Футбол, ...
  • Чемпионат России 2012-2013 / 1-й тур / Алания (Владикавказ) - Спартак (Моск ...
  • ХХХ Летние Олимпийские Игры / Волейбол / Мужчины / Четвертьфинал / Польша – ...
  • Информация
    Посетители, находящиеся в группе Гости, не могут оставлять комментарии к данной публикации.