вход на сайт

Имя пользователя :
Пароль :

Восстановление пароля Регистрация
NHL 12/13 / Stanley Cup Playoffs / East / Semifinals / Game 1 / New York Rangers vs Boston Bruins [Хоккей, 16.05.2013, WEB-DL HD/720p, MP4/H.264, EN]
Рейтинг:
(голосов: 1)



[img]{THEME}/images/logopost.png[/img]





NHL 2012-2013

Вид спорта: Хоккей
Год выпуска: 16.05.2013
Язык комментариев: Английский
Участники: New York Rangers vs Boston BruinsPenguins
Описание: NHL 12/13 / Stanley Cup Playoffs / East / Semifinals / Game 1
Автор рипа/записи: MrDraxРезультат матча ▼2-3 OT
Качество: WEB-DL HD
Продолжительность: 02:08:14
Формат: MP4
Видео кодек: H.264
Аудио кодек: AAC
Свойства видео: 1280x720, 29,97fps, ~3000 kbps
Свойства аудио: 44.1 kHz, 2 ch, ~126 kbps
Тех. данные ▼
E:[email protected]
General
Complete name : E:[email protected]
Format : MPEG-4
Format profile : Base Media
Codec ID : isom
File size : 2.63 GiB
Duration : 2h 8mn
Overall bit rate mode : Variable
Overall bit rate : 2 940 Kbps
Encoded date : UTC 2013-05-16 03:13:43
Tagged date : UTC 2013-05-16 03:13:43
Video #1
ID : 1
Format : AVC
Format/Info : Advanced Video Codec
Format profile : [email protected]
Format settings, CABAC : Yes
Format settings, ReFrames : 3 frames
Codec ID : avc1
Codec ID/Info : Advanced Video Coding
Duration : 2h 8mn
Bit rate : 2 806 Kbps
Width : 1 280 pixels
Height : 720 pixels
Display aspect ratio : 16:9
Frame rate mode : Variable
Frame rate : 29.970 fps
Minimum frame rate : 29.412 fps
Maximum frame rate : 30.303 fps
Color space : YUV
Chroma subsampling : 4:2:0
Bit depth : 8 bits
Scan type : Progressive
Bits/(Pixel*Frame) : 0.102
Stream size : 2.51 GiB (95%)
Title : NeuLion MP4 - Video
Encoded date : UTC 2013-05-16 03:13:46
Tagged date : UTC 2013-05-16 05:52:32
Audio #2
ID : 2
Format : AAC
Format/Info : Advanced Audio Codec
Format profile : LC
Codec ID : 40
Duration : 2h 8mn
Bit rate mode : Variable
Bit rate : 126 Kbps
Channel(s) : 2 channels
Channel positions : Front: L R
Sampling rate : 44.1 KHz
Compression mode : Lossy
Stream size : 115 MiB (4%)
Title : NeuLion MP4 - Audio
Encoded date : UTC 2013-05-16 03:13:46
Tagged date : UTC 2013-05-16 05:52:32


Мои раздачи


cc5a25ce25b37cf82f16b67dd14ab2a3380f098eNHL 12/13 / Stanley Cup Playoffs / East / Semifinals / Game 1 / New York Rangers vs Boston Bruins [Хоккей, 16.05.2013, WEB-DL HD/720p, MP4/H.264, EN] NHL 12/13 / Stanley Cup Playoffs / East / Semifinals / Game 1 / New York Rangers vs Boston Bruins [Хоккей, 16.05.2013, WEB-DL HD/720p, MP4/H.264, EN] " />

Аплоадер: Админ, дата: 17-05-2013, 13:50, торрент скачан: 359 раз

Понравилась раздача? Посмотрите эти:
  • NHL Playoffs 2013 / East / Final / Game 3 / Pittsburgh Penguins vs Boston B ...
  • NHL 12/13 / Stanley Cup Playoffs / Final / Game 4 / Chicago Blackhawks @ Bo ...
  • NHL Playoffs 2013 / Final / Game 6 / Chicago Blackhawks vs. Boston Bruins ...
  • NHL Playoffs 2013 / East / Final / Game 1 / Boston Bruins vs Pittsburgh Pen ...
  • NHL 12/13 / Stanley Cup Playoffs / West / Final / Game 2 / Los Angeles King ...
  • NHL 12/13 / Stanley Cup Playoffs / East / Round 1 / Game 2 / New York Range ...
  • NHL 12/13 / Stanley Cup Playoffs / West / Round 1 / Game 3 / Anaheim Ducks ...
  • NHL 12/13 / Stanley Cup Playoffs / East / Round 1 / Game 2 / Toronto Maple ...
  • NHL 12/13 / Stanley Cup Playoffs / East / Round 1 / Game 3 / Pittsburgh Pen ...
  • NHL 12/13 / Stanley Cup Playoffs / West / Round 1 / Game 3 / Chicago Blackh ...
  • NHL 12/13 / Stanley Cup Playoffs / Round 1 / Game 3 / Montreal Canadiens @ ...
  • NHL 12/13 / Stanley Cup Playoffs / West / Round 1 / Game 3 / Vancouver Canu ...
  • NHL 12/13 / Stanley Cup Playoffs / East / Round 1 / Game 4 / Pittsburgh Pen ...
  • NBA Playoffs 2013 / East / Semifinal / Game 2 / Indiana Pacers vs New York ...
  • NHL 12/13 / Stanley Cup Playoffs / East / Round 1 / Game 5 / New York Islan ...
  • NHL 12/13 / Stanley Cup Playoffs / Round 1 / Game 5 / Ottawa Senators @ Mon ...
  • NHL 12/13 / Stanley Cup Playoffs / West / Round 1 / Game 5 / Minnesota Wild ...
  • NHL 12/13 / Stanley Cup Playoffs / East / Semifinals / Game 1 / Ottawa Sena ...
  • NHL 12/13 / Stanley Cup Playoffs / East / Semifinals / Game 1 / New York Ra ...
  • NHL 12/13 / Stanley Cup Playoffs / East / Semifinals / Game 1 / New York Ra ...
  • NHL 12/13 / Stanley Cup Playoffs / East / Semifinals / Game 2 / Ottawa Sena ...
  • NHL 12/13 / Stanley Cup Playoffs / West / Round 1 / Game 1 / Minnesota Wild ...
  • NHL 12/13 / Stanley Cup Playoffs / West / Round 1 / Game 1 / Detroit Red Wi ...
  • NHL 12/13 / Stanley Cup Playoffs / East / Round 1 / Game 1 / New York Islan ...
  • NHL 12/13 / Stanley Cup Playoffs / East / Round 1 / Game 1 / Toronto Maple ...
  • Информация
    Посетители, находящиеся в группе Гости, не могут оставлять комментарии к данной публикации.