вход на сайт

Имя пользователя :
Пароль :

Восстановление пароля Регистрация
NHL 12/13 / Stanley Cup Playoffs / Highlights Playoff Edition [Хоккей, 07.05.2013, WEB-DL HD /720p/60fps, MP4/H.264, EN]
Рейтинг:
(голосов: 1)



[img]{THEME}/images/logopost.png[/img]





NHL 2012-2013

Вид спорта: Хоккей
Год выпуска: 07.05.2013
Язык комментариев: Английский
Участники: Команды участники Плей офф
Описание: Заброшенные шайбы, сейвы, хиты, лучшие моменты матчей за игровой день. Нарезка моментов
Автор рипа/записи: MrDrax
Качество: WEB-DL HD
Продолжительность: 00:44:02
Формат: MP4
Видео кодек: H.264
Аудио кодек: AAC
Свойства видео: 1280x720, 59.94fps, 4400 kbps
Свойства аудио: 44,1 kHz, stereo, 192 kbps
Тех. данные ▼
E:NHLHighlights Playoff2013.05.07pit_nyi.mp4
General
Complete name : E:NHLHighlights Playoff2013.05.07pit_nyi.mp4
Format : MPEG-4
Format profile : Base Media
Codec ID : isom
File size : 337 MiB
Duration : 10mn 36s
Overall bit rate mode : Variable
Overall bit rate : 4 441 Kbps
Encoded date : UTC 2013-05-07 01:59:30
Tagged date : UTC 2013-05-07 01:59:30
Video #1
ID : 1
Format : AVC
Format/Info : Advanced Video Codec
Format profile : [email protected]
Format settings, CABAC : Yes
Format settings, ReFrames : 3 frames
Codec ID : avc1
Codec ID/Info : Advanced Video Coding
Duration : 10mn 36s
Bit rate : 4 304 Kbps
Width : 1 280 pixels
Height : 720 pixels
Display aspect ratio : 16:9
Frame rate mode : Variable
Frame rate : 59.940 fps
Minimum frame rate : 58.824 fps
Maximum frame rate : 62.500 fps
Color space : YUV
Chroma subsampling : 4:2:0
Bit depth : 8 bits
Scan type : Progressive
Bits/(Pixel*Frame) : 0.078
Stream size : 326 MiB (97%)
Title : NeuLion MP4 - Video
Encoded date : UTC 2013-05-07 01:59:31
Tagged date : UTC 2013-05-07 02:19:10
Audio #2
ID : 2
Format : AAC
Format/Info : Advanced Audio Codec
Format profile : LC
Codec ID : 40
Duration : 10mn 35s
Bit rate mode : Variable
Bit rate : 125 Kbps
Channel(s) : 2 channels
Channel positions : Front: L R
Sampling rate : 44.1 KHz
Compression mode : Lossy
Stream size : 9.51 MiB (3%)
Title : NeuLion MP4 - Audio
Encoded date : UTC 2013-05-07 01:59:32
Tagged date : UTC 2013-05-07 02:19:10


Мои раздачи


f5ba9eaf9bf975e7a258489130ada3d1e8bec0b7NHL 12/13 / Stanley Cup Playoffs / Highlights Playoff Edition [Хоккей, 07.05.2013, WEB-DL HD /720p/60fps, MP4/H.264, EN] NHL 12/13 / Stanley Cup Playoffs / Highlights Playoff Edition [Хоккей, 07.05.2013, WEB-DL HD /720p/60fps, MP4/H.264, EN] " />

Аплоадер: Админ, дата: 8-05-2013, 16:15, торрент скачан: 359 раз

Понравилась раздача? Посмотрите эти:
  • NHL 12/13 / Stanley Cup Playoffs / West / Final / Game 2 / Los Angeles King ...
  • NHL 12/13 / Stanley Cup Playoffs / Highlights Playoff Edition [Хоккей, 03.0 ...
  • NHL 12/13 / Stanley Cup Playoffs / East / Round 1 / Game 2 / New York Range ...
  • NBA Playoffs 2013 / Highlights Playoff Edition [Баскетбол, 05.05.2013, WEB ...
  • NHL 12/13 / Stanley Cup Playoffs / West / Round 1 / Game 3 / Chicago Blackh ...
  • NHL 12/13 / Stanley Cup Playoffs / Round 1 / Game 3 / Montreal Canadiens @ ...
  • NHL 12/13 / Stanley Cup Playoffs / Highlights Playoff Edition [Хоккей, 05.0 ...
  • NHL 12/13 / Stanley Cup Playoffs / West / Round 1 / Game 3 / Vancouver Canu ...
  • NHL 12/13 / Stanley Cup Playoffs / Highlights Playoff Edition [Хоккей, 06.0 ...
  • NBA Playoffs 2013 / Highlights Playoff Edition [Баскетбол, 06.05.2013, WEB ...
  • NHL 12/13 / Stanley Cup Playoffs / East / Round 1 / Game 4 / Pittsburgh Pen ...
  • NBA Playoffs 2013 / Highlights Playoff Edition [Баскетбол, 07.05.2013, WEB ...
  • NHL 12/13 / Stanley Cup Playoffs / Round 1 / Game 5 / Ottawa Senators @ Mon ...
  • NHL 12/13 / Stanley Cup Playoffs / West / Round 1 / Game 5 / Minnesota Wild ...
  • NHL 12/13 / Stanley Cup Playoffs / Highlights Playoff Edition [Хоккей, 09.0 ...
  • NBA Playoffs 2013 / Highlights Playoff Edition [Баскетбол, 08.05.2013, WEB ...
  • NBA Playoffs 2013 / Highlights Playoff Edition [Баскетбол, 10.05.2013, WEB ...
  • NHL 12/13 / Stanley Cup Playoffs / Highlights Playoff Edition [Хоккей, 10.0 ...
  • NBA Playoffs 2013 / Highlights Playoff Edition [Баскетбол, 11.05.2013, WEB ...
  • NHL 12/13 / Stanley Cup Playoffs / East / Semifinals / Game 1 / Ottawa Sena ...
  • NHL 12/13 / Stanley Cup Playoffs / East / Semifinals / Game 1 / New York Ra ...
  • NHL 12/13 / Stanley Cup Playoffs / East / Semifinals / Game 1 / New York Ra ...
  • NHL 12/13 / Stanley Cup Playoffs / East / Semifinals / Game 1 / New York Ra ...
  • NHL 12/13 / Stanley Cup Playoffs / East / Semifinals / Game 2 / Ottawa Sena ...
  • NHL 12/13 / Stanley Cup Playoffs / Round 1 / Highlights Playoff Edition [Хо ...
  • Информация
    Посетители, находящиеся в группе Гости, не могут оставлять комментарии к данной публикации.