вход на сайт

Имя пользователя :
Пароль :

Восстановление пароля Регистрация
Чемпионат Мира по хоккею 2013 / Группа В / Россия - США / Россия 2 [Хоккей, 07.05.2013, SAT, TS/MPEG2, RU]
Рейтинг:
(голосов: 1)



[img]{THEME}/images/logopost.png[/img]





Чемпионат мира 2013


Вид спорта: Хоккей
Год выпуска: 07.05.2013
Язык комментариев: Русский (Сергей Гимаев и Александр Ткачев)
Участники: Россия - США
Описание: Чемпионат Мира по хоккею 2013 / Группа Н / Россия - США / Россия 2
Автор рипа/записи: dfkthbq1968Результат матча ▼5-3
Качество: SAT
Продолжительность ▼00:37:58+00:34:44+00:38:03
Формат: TS
Видео кодек: MPEG2
Аудио кодек: MPEG Audio
Свойства видео: 720x576(16:10), 25 fps, MPEG2 ~2700 kbps avg, 0.26 bit/pixel
Свойства аудио: 48 kHz, MPEG Layer 3, 2 ch, ~192.00 kbps avgТех. данные ▼E:×åìïèîíàò ìèðà 2013 ïî ÕîêêåþGroup_B_Russia_USAtime_1.ts
General #6
ID : 6 (0x6)
Complete name : E:×åìïèîíàò ìèðà 2013 ïî ÕîêêåþGroup_B_Russia_USAtime_1.ts
Format : MPEG-TS
File size : 865 MiB
Duration : 37mn 58s
Overall bit rate mode : Variable
Overall bit rate : 3 185 Kbps
Video #328
ID : 328 (0x148)
Menu ID : 10408 (0x28A8)
Format : MPEG Video
Format version : Version 2
Format profile : [email protected]
Format settings, BVOP : Yes
Format settings, Matrix : Custom
Format settings, GOP : Variable
Codec ID : 2
Duration : 37mn 57s
Bit rate mode : Variable
Bit rate : 2 834 Kbps
Maximum bit rate : 15.0 Mbps
Width : 720 pixels
Height : 576 pixels
Display aspect ratio : 4:3
Frame rate : 25.000 fps
Standard : PAL
Color space : YUV
Chroma subsampling : 4:2:0
Bit depth : 8 bits
Scan type : Interlaced
Scan order : Top Field First
Compression mode : Lossy
Bits/(Pixel*Frame) : 0.273
Stream size : 769 MiB (89%)
Audio #408
ID : 408 (0x198)
Menu ID : 10408 (0x28A8)
Format : MPEG Audio
Format version : Version 1
Format profile : Layer 2
Codec ID : 4
Duration : 37mn 58s
Bit rate mode : Constant
Bit rate : 192 Kbps
Channel(s) : 2 channels
Sampling rate : 48.0 KHz
Compression mode : Lossy
Delay relative to video : 16ms
Stream size : 52.1 MiB (6%)
Language : Russian
Language, more info : Clean effects


Раздача Beeline


699222e4051ada5244c2a9d8b3f11c08a830c2baЧемпионат Мира по хоккею 2013 / Группа В / Россия - США / Россия 2 [Хоккей, 07.05.2013, SAT, TS/MPEG2, RU] Чемпионат Мира по хоккею 2013 / Группа В / Россия - США / Россия 2 [Хоккей, 07.05.2013, SAT, TS/MPEG2, RU] " />

Аплоадер: Админ, дата: 8-05-2013, 02:12, торрент скачан: 359 раз

Понравилась раздача? Посмотрите эти:
  • Чемпионат Мира 2014 / Отборочный турнир / Группа F / Россия - Израиль / Спо ...
  • Чемпионат Мира по хоккею 2013 / Группа Н / Россия - Латвия / Россия 2 [хокк ...
  • Чемпионат Мира по хоккею 2013 / Группа В / Россия - Германия / Россия 2 [Хо ...
  • Чемпионат Мира по хоккею 2013 / Россия - США / Россия 2 [хоккей,07.05.2013, ...
  • Чемпионат Мира по хоккею 2013 / Россия - Франция / Россия 2 [хоккей,09.05.2 ...
  • Чемпионат Мира по хоккею 2013 / Швеция - Канада / Россия 2 [хоккей,09.05.20 ...
  • Чемпионат Мира по хоккею 2013 / Россия - Финляндия / Первый канал [хоккей,1 ...
  • Чемпионат Мира по хоккею 2013 / Россия - Словакия / Первый канал [хоккей,12 ...
  • Чемпионат Мира по хоккею 2013 / Группа В / Австрия - Россия / Спорт 1 [Хокк ...
  • Чемпионат мира 13, 1/4 финала: РОССИЯ - США / Первый канал [хоккей,16.05.20 ...
  • Чемпионат Мира по хоккею 2013 / Четвертьфинал / Россия - США / 1 HD [Хокке ...
  • Чемпионат мира 13 / 1/2 финала / Швеция - Финляндия / Россия 2 [хоккей,18.0 ...
  • Чемпионат Мира по хоккею 2013 (U-18) / 1/2 финала / Россия - США [хоккей, 2 ...
  • Молодежный чемпионат мира 2012 (U-20). Четвертьфинал: Россия - Чехия [02.01 ...
  • Хоккей / Чемпионат Мира 2012 (U-20) / 1/2 финала / Канада - Россия / 2012 / ...
  • Чемпионат мира 12, группа S: Россия - Швеция [11.05.2012, хоккей, HDRip/720 ...
  • Чемпионат Мира по хоккею 2012 / 1/2 финала / Россия vs Финляндия [хоккей, 1 ...
  • Чемпионат мира 12, ФИНАЛ. Россия - Словакия [20.05.2012, Хоккей,RU/Первый, ...
  • Чемпионат мира 12, ФИНАЛ. Россия - Словакия [20.05.2012, Хоккей,RU/Первый, ...
  • Молодежный Чемпионат мира по хоккею 2013 / 1/2 финала / Канада - США [хокке ...
  • Молодежный Чемпионат мира по хоккею 2013 / Матч за третье место / Канада - ...
  • Молодежный Чемпионат мира по хоккею 2013 / Финал / Швеция - США [хоккей, 05 ...
  • Чемпионат Мира по хоккею 2012 / Группа S / Россия vs Швеция [хоккей, 12.05. ...
  • Чемпионат Мира по хоккею 2012 / 1/4 финала / Россия vs Норвегия [хоккей, 17 ...
  • Чемпионат Мира по хоккею 2012 / 1/2 Финала / Россия - Финляндия / Россия 1 ...
  • Информация
    Посетители, находящиеся в группе Гости, не могут оставлять комментарии к данной публикации.