вход на сайт

Имя пользователя :
Пароль :

Восстановление пароля Регистрация
NHL 12/13 / Stanley Cup Playoffs / East / Round 1 / Game 3 / Pittsburgh Penguins Capitals @ New York Islanders [Хоккей, 05.05.2013, WEB-DL/540p, MP4/H.264, EN]
Рейтинг:
(голосов: 1)



[img]{THEME}/images/logopost.png[/img]





NHL 2012-2013

Вид спорта: Хоккей
Год выпуска: 03.05.2013
Язык комментариев: Английский
Участники: Pittsburgh Penguins Capitals @ New York Islanders
Описание: NHL 12/13 / Stanley Cup Playoffs / Round 1 / Game 3
Автор рипа/записи: MrDraxРезультат матча ▼5-4 OT
Качество: WEB-DL
Продолжительность: 01:52:30
Формат: MP4
Видео кодек: H.264
Аудио кодек: AAC
Свойства видео: 960x540, 29,97fps, ~1600 kbps
Свойства аудио: 44.1 kHz, 2 ch, ~78 kbps
Тех. данные ▼
E:NHL
[email protected]
General
Complete name : E:NHL
[email protected]
Format : MPEG-4
Format profile : Base Media
Codec ID : isom
File size : 1.19 GiB
Duration : 1h 52mn
Overall bit rate mode : Variable
Overall bit rate : 1 519 Kbps
Encoded date : UTC 2013-05-04 19:39:06
Tagged date : UTC 2013-05-04 19:39:06
Video #1
ID : 1
Format : AVC
Format/Info : Advanced Video Codec
Format profile : [email protected]
Format settings, CABAC : Yes
Format settings, ReFrames : 3 frames
Codec ID : avc1
Codec ID/Info : Advanced Video Coding
Duration : 1h 52mn
Bit rate : 1 445 Kbps
Width : 960 pixels
Height : 540 pixels
Display aspect ratio : 16:9
Frame rate mode : Variable
Frame rate : 29.970 fps
Minimum frame rate : 29.412 fps
Maximum frame rate : 30.303 fps
Color space : YUV
Chroma subsampling : 4:2:0
Bit depth : 8 bits
Scan type : Progressive
Bits/(Pixel*Frame) : 0.093
Stream size : 1.14 GiB (95%)
Title : NeuLion MP4 - Video
Encoded date : UTC 2013-05-04 19:39:08
Tagged date : UTC 2013-05-04 20:38:08
Audio #2
ID : 2
Format : AAC
Format/Info : Advanced Audio Codec
Format profile : LC
Codec ID : 40
Duration : 1h 52mn
Bit rate mode : Variable
Bit rate : 66.2 Kbps
Channel(s) : 2 channels
Channel positions : Front: L R
Sampling rate : 44.1 KHz
Compression mode : Lossy
Stream size : 53.8 MiB (4%)
Title : NeuLion MP4 - Audio
Encoded date : UTC 2013-05-04 19:39:08
Tagged date : UTC 2013-05-04 20:38:08
Text #1-CC1
ID : 1-CC1
Format : EIA-6
984112b365f1a85d47c3ad48619e909ee27b0536NHL 12/13 / Stanley Cup Playoffs / East / Round 1 / Game 3 / Pittsburgh Penguins Capitals @ New York Islanders [Хоккей, 05.05.2013, WEB-DL/540p, MP4/H.264, EN] NHL 12/13 / Stanley Cup Playoffs / East / Round 1 / Game 3 / Pittsburgh Penguins Capitals @ New York Islanders [Хоккей, 05.05.2013, WEB-DL/540p, MP4/H.264, EN] " />

Аплоадер: Админ, дата: 6-05-2013, 11:54, торрент скачан: 359 раз

Понравилась раздача? Посмотрите эти:
  • NHL 12/13 / Stanley Cup Playoffs / East / Final / Game 2 / Boston Bruins @ ...
  • NHL Playoffs 2013 / East / Final / Game 3 / Pittsburgh Penguins vs Boston B ...
  • NHL Playoffs 2013 / East / Final / Game 1 / Boston Bruins vs Pittsburgh Pen ...
  • NHL 12/13 / Stanley Cup Playoffs / East / Final / Game 2 / Boston Bruins @ ...
  • NHL 12/13 / Stanley Cup Playoffs / East / Round 1 / Game 2 / New York Range ...
  • NHL 12/13 / Stanley Cup Playoffs / West / Round 1 / Game 3 / Anaheim Ducks ...
  • NHL 12/13 / Stanley Cup Playoffs / East / Round 1 / Game 2 / Toronto Maple ...
  • NHL 12/13 / Stanley Cup Playoffs / West / Round 1 / Game 3 / Chicago Blackh ...
  • NHL 12/13 / Stanley Cup Playoffs / Round 1 / Game 3 / Montreal Canadiens @ ...
  • NHL 12/13 / Stanley Cup Playoffs / West / Round 1 / Game 3 / Vancouver Canu ...
  • NHL 12/13 / Stanley Cup Playoffs / East / Round 1 / Game 4 / Pittsburgh Pen ...
  • NHL 12/13 / Stanley Cup Playoffs / East / Round 1 / Game 5 / New York Islan ...
  • NHL 12/13 / Stanley Cup Playoffs / Round 1 / Game 5 / Ottawa Senators @ Mon ...
  • NHL 12/13 / Stanley Cup Playoffs / West / Round 1 / Game 5 / Minnesota Wild ...
  • NBA Playoffs 2013 / East / Semifinal / Game 4 / New York Knicks @ Indiana P ...
  • NHL 12/13 / Stanley Cup Playoffs / East / Semifinals / Game 1 / Ottawa Sena ...
  • NHL 12/13 / Stanley Cup Playoffs / East / Semifinals / Game 1 / New York Ra ...
  • NHL 12/13 / Stanley Cup Playoffs / East / Semifinals / Game 1 / New York Ra ...
  • NHL 12/13 / Stanley Cup Playoffs / East / Semifinals / Game 1 / New York Ra ...
  • NHL 12/13 / Stanley Cup Playoffs / East / Semifinals / Game 2 / Ottawa Sena ...
  • NHL 12/13 / Stanley Cup Playoffs / West / Round 1 / Game 1 / Minnesota Wild ...
  • NHL 12/13 / Stanley Cup Playoffs / West / Round 1 / Game 1 / Detroit Red Wi ...
  • NHL 12/13 / Stanley Cup Playoffs / East / Round 1 / Game 1 / New York Islan ...
  • NHL 12/13 / Stanley Cup Playoffs / East / Round 1 / Game 1 / Toronto Maple ...
  • NHL 12/13, RS: Pittsburgh Penguins vs Washington Capitals [хоккей,03.02.201 ...
  • Информация
    Посетители, находящиеся в группе Гости, не могут оставлять комментарии к данной публикации.