вход на сайт

Имя пользователя :
Пароль :

Восстановление пароля Регистрация
NHL 12/13 / Stanley Cup Playoffs / West / Final / Game 2 / Los Angeles Kings @ Chicago Blackhawks [Хоккей, 16.05.2013, WEB-DL HD/720p/60fps, MP4/H.264, EN]
Рейтинг:
(голосов: 1)



[img]{THEME}/images/logopost.png[/img]





NHL 2012-2013

Вид спорта: Хоккей
Год выпуска: 02.06.2013
Язык комментариев: Английский
Участники: Los Angeles Kings @ Chicago Blackhawks
Описание: NHL 12/13 / Stanley Cup Playoffs / West / Final / Game 2
Автор рипа/записи: MrDraxРезультат матча ▼1-4
Качество: WEB-DL HD
Продолжительность: 01:42:03
Формат: MP4
Видео кодек: H.264
Аудио кодек: AAC
Свойства видео: 1280x720, 59,94fps, ~4500 kbps
Свойства аудио: 44.1 kHz, 2 ch, ~192 kbps
Тех. данные ▼
E:[email protected]@CHI.720p.60fps.mp4
General
Complete name : E:[email protected]@CHI.720p.60fps.mp4
Format : MPEG-4
Format profile : Base Media
Codec ID : isom
File size : 3.15 GiB
Duration : 1h 42mn
Overall bit rate mode : Variable
Overall bit rate : 4 425 Kbps
Encoded date : UTC 2013-06-02 03:26:32
Tagged date : UTC 2013-06-02 03:26:32
Video #1
ID : 1
Format : AVC
Format/Info : Advanced Video Codec
Format profile : [email protected]
Format settings, CABAC : Yes
Format settings, ReFrames : 3 frames
Codec ID : avc1
Codec ID/Info : Advanced Video Coding
Duration : 1h 42mn
Bit rate : 4 288 Kbps
Width : 1 280 pixels
Height : 720 pixels
Display aspect ratio : 16:9
Frame rate mode : Variable
Frame rate : 59.940 fps
Minimum frame rate : 58.824 fps
Maximum frame rate : 62.500 fps
Color space : YUV
Chroma subsampling : 4:2:0
Bit depth : 8 bits
Scan type : Progressive
Bits/(Pixel*Frame) : 0.078
Stream size : 3.06 GiB (97%)
Title : NeuLion MP4 - Video
Encoded date : UTC 2013-06-02 03:26:34
Tagged date : UTC 2013-06-02 05:31:29
Audio #2
ID : 2
Format : AAC
Format/Info : Advanced Audio Codec
Format profile : LC
Codec ID : 40
Duration : 1h 42mn
Bit rate mode : Variable
Bit rate : 126 Kbps
Channel(s) : 2 channels
Channel positions : Front: L R
Sampling rate : 44.1 KHz
Compression mode : Lossy
Stream size : 91.7 MiB (3%)
Title : NeuLion MP4 - Audio
Encoded date : UTC 2013-06-02 03:26:34
Tagged date : UTC 2013-06-02 05:31:29


Раздача Beeline


1616db47f8bf3cc4b30d510083312602cff67adfNHL 12/13 / Stanley Cup Playoffs / West / Final / Game 2 / Los Angeles Kings @ Chicago Blackhawks [Хоккей, 16.05.2013, WEB-DL HD/720p/60fps, MP4/H.264, EN] NHL 12/13 / Stanley Cup Playoffs / West / Final / Game 2 / Los Angeles Kings @ Chicago Blackhawks [Хоккей, 16.05.2013, WEB-DL HD/720p/60fps, MP4/H.264, EN] " />

Аплоадер: Админ, дата: 3-06-2013, 19:29, торрент скачан: 359 раз

Понравилась раздача? Посмотрите эти:
  • NHL Playoffs 2013 / West / Final / Game 3 / Chicago Blackhawks vs Los Angel ...
  • NHL 12/13 / Stanley Cup Playoffs / Final / Game 4 / Chicago Blackhawks @ Bo ...
  • NHL Playoffs 2013 / Final / Game 6 / Chicago Blackhawks vs. Boston Bruins ...
  • NHL Playoffs 2013 / West / Final / Game 1 / Los Angeles Kings vs Chicago Bl ...
  • NHL Playoffs 2013 / West / Final / Game 2 / Los Angeles Kings vs Chicago Bl ...
  • NHL 12/13 / Stanley Cup Playoffs / Highlights Playoff Edition [Хоккей, 03.0 ...
  • NHL 12/13 / Stanley Cup Playoffs / West / Round 1 / Game 3 / Anaheim Ducks ...
  • NHL 12/13 / Stanley Cup Playoffs / West / Round 1 / Game 3 / Chicago Blackh ...
  • NHL 12/13 / Stanley Cup Playoffs / Round 1 / Game 3 / Montreal Canadiens @ ...
  • NHL 12/13 / Stanley Cup Playoffs / Highlights Playoff Edition [Хоккей, 05.0 ...
  • NHL 12/13 / Stanley Cup Playoffs / West / Round 1 / Game 3 / Vancouver Canu ...
  • NHL 12/13 / Stanley Cup Playoffs / Highlights Playoff Edition [Хоккей, 06.0 ...
  • NHL 12/13 / Stanley Cup Playoffs / East / Round 1 / Game 4 / Pittsburgh Pen ...
  • NHL 12/13 / Stanley Cup Playoffs / Highlights Playoff Edition [Хоккей, 07.0 ...
  • NHL 12/13 / Stanley Cup Playoffs / Round 1 / Game 5 / Ottawa Senators @ Mon ...
  • NHL 12/13 / Stanley Cup Playoffs / West / Round 1 / Game 5 / Minnesota Wild ...
  • NHL 12/13 / Stanley Cup Playoffs / Highlights Playoff Edition [Хоккей, 09.0 ...
  • NHL 12/13 / Stanley Cup Playoffs / Highlights Playoff Edition [Хоккей, 10.0 ...
  • NHL 12/13 / Stanley Cup Playoffs / East / Semifinals / Game 1 / Ottawa Sena ...
  • NHL 12/13 / Stanley Cup Playoffs / East / Semifinals / Game 1 / New York Ra ...
  • NHL 12/13 / Stanley Cup Playoffs / East / Semifinals / Game 1 / New York Ra ...
  • NHL 12/13 / Stanley Cup Playoffs / East / Semifinals / Game 1 / New York Ra ...
  • NHL 12/13 / Stanley Cup Playoffs / West / Round 1 / Game 1 / Minnesota Wild ...
  • NHL 12/13 / Stanley Cup Playoffs / West / Round 1 / Game 1 / Detroit Red Wi ...
  • NHL 12/13, RS: Chicago Blackhawks vs Los Angeles Kings [хоккей,19.01.2013,H ...
  • Информация
    Посетители, находящиеся в группе Гости, не могут оставлять комментарии к данной публикации.