вход на сайт

Имя пользователя :
Пароль :

Восстановление пароля Регистрация
Блудливая Калифорния / Californication // Сезон 5, Эпизоды с 1 по 12 (из 12) (драма, комедия, 2012) [HDTV 720p, Профессиональный (многоголосый закадровый от LostFilm) + Оригинал + Субтитры]
Рейтинг:
(голосов: 1)



[img]{THEME}/images/logopost.png[/img]



Блудливая Калифорния / Californication
Сезон 5, Эпизоды с 1 по 12 (из 12)

Год выпуска: 2012
Страна: США
Производство: Aggressive Mediocrity
Жанр: драма, комедия

Режиссёр: Том Капинос
В ролях: Дэвид Духовны, Наташа МакЭлхоун, Мэделин Мартин, Эван Хандлер, Эддисон Тимлин, Мадлен Зима

Перевод: Профессиональный (многоголосый закадровый от LostFilm) + Оригинал
Субтитры: русские, (Notabenoid) английские

Описание: Похождения блудливого писателя Хэнка Муди продолжаются. На этот раз, спустя два года, он возвращается на солнечное побережье, чтобы сработаться вместе с экс рэпером RZA. И пусть за эти годы многое изменилось, но только не старина Хэнк...

Список эпизодов ▼Эпизод 1. JFK to LAX
Эпизод 2. The Way of the Fist
Эпизод 3. Boys & Girls
Эпизод 4. Waiting for the Miracle
Эпизод 5. The Ride Along
Эпизод 6. Love Song
Эпизод 7. Here I Go Again
Эпизод 8. Raw
Эпизод 9. At the Movies
Эпизод 10. Perverts & Whores
Эпизод 11. The Party
Эпизод 12. Hell Aint a Bad Place to Be




Качество: HDTV 720p
Продолжительность: по ~ 00:29:00

Формат: MKV
Видео кодек: H.264
Аудио кодек: AC3
Свойство видео: 1 280x712 (16:9), 23.976 fps, ~4 013 kbps avg, 0.182 bit/pixel
Свойство аудио1: 48.0 KHz, 6 channels (Front: L C R, Side: L R, LFE), 384.00 kbps avg
Свойство аудио2: 48.0 KHz, 6 channels (Front: L C R, Side: L R, LFE), 384.00 kbps avg
MediaInfo ▼TextFormat : Matroska
Format version : Version 2
File size : 965 MiB
Duration : 27mn 40s
Overall bit rate : 4 878 Kbps
Movie name : Californication S05E06 Love Song [Rus - MVO LostFilm | Eng | sub]
Encoded date : UTC 2012-02-15 16:01:31
Writing application : mkvmerge v5.2.1 (A Far Off Place) built on Jan 2 2012 23:21:10
Writing library : libebml v1.2.3 + libmatroska v1.3.0

Video
ID : 1
Format : AVC
Format/Info : Advanced Video Codec
Format profile : [email protected]
Format settings, CABAC : Yes
Format settings, ReFrames : 5 frames
Codec ID : V_MPEG4/ISO/AVC
Duration : 27mn 40s
Bit rate : 4 013 Kbps
Width : 1 280 pixels
Height : 720 pixels
Display aspect ratio : 16:9
Frame rate : 23.976 fps
Color space : YUV
Chroma subsampling : 4:2:0
Bit depth : 8 bits
Scan type : Progressive
Bits/(Pixel*Frame) : 0.182
Stream size : 794 MiB (82%)
Title : Californication S05E06 Love Song
Writing library : x264 core 120 r2164 da19765
Encoding settings : cabac=1 / ref=5 / deblock=1:-1:-1 / analyse=0x3:0x113 / me=umh / subme=8 / psy=1 / psy_rd=1.00:0.15 / mixed_ref=1 / me_range=16 / chroma_me=1 / trellis=1 / 8x8dct=1 / cqm=0 / deadzone=21,11 / fast_pskip=1 / chroma_qp_offset=-3 / threads=36 / sliced_threads=0 / nr=0 / decimate=1 / interlaced=0 / bluray_compat=0 / constrained_intra=0 / bframes=3 / b_pyramid=2 / b_adapt=2 / b_bias=0 / direct=3 / weightb=1 / open_gop=0 / weightp=2 / keyint=250 / keyint_min=23 / scenecut=40 / intra_refresh=0 / rc_lookahead=50 / rc=crf / mbtree=1 / crf=18.0 / qcomp=0.60 / qpmin=0 / qpmax=69 / qpstep=4 / ip_ratio=1.40 / aq=1:1.00
Language : English
Default : Yes
Forced : No

Audio #1
ID : 2
Format : AC-3
Format/Info : Audio Coding 3
Mode extension : CM (complete main)
Codec ID : A_AC3
Duration : 27mn 40s
Bit rate mode : Constant
Bit rate : 384 Kbps
Channel(s) : 6 channels
Channel positions : Front: L C R, Side: L R, LFE
Sampling rate : 48.0 KHz
Bit depth : 16 bits
Compression mode : Lossy
Stream size : 76.0 MiB (8%)
Title : LostFilm @ AC3 5.1
Language : Russian
Default : Yes
Forced : No

Audio #2
ID : 3
Format : AC-3
Format/Info : Audio Coding 3
Mode extension : CM (complete main)
Codec ID : A_AC3
Duration : 27mn 40s
Bit rate mode : Constant
Bit rate : 384 Kbps
Channel(s) : 6 channels
Channel positions : Front: L C R, Side: L R, LFE
Sampling rate : 48.0 KHz
Bit depth : 16 bits
Compression mode : Lossy
Stream size : 76.0 MiB (8%)
Title : Original @ AC3 5.1
Language : English
Default : No
Forced : No

Text #1
ID : 4
Format : UTF-8
Codec ID : S_TEXT/UTF8
Codec ID/Info : UTF-8 Plain Text
Title : Disabled
Languag
1fa8a343f9d020b9033633d49364e2a2f89acf86Блудливая Калифорния / Californication // Сезон 5, Эпизоды с 1 по 12 (из 12) (драма, комедия, 2012) [HDTV 720p, Профессиональный (многоголосый закадровый от LostFilm) + Оригинал + Субтитры] Блудливая Калифорния / Californication // Сезон 5, Эпизоды с 1 по 12 (из 12) (драма, комедия, 2012) [HDTV 720p, Профессиональный (многоголосый закадровый от LostFilm) + Оригинал + Субтитры] " />

Аплоадер: Админ, дата: 20-05-2012, 18:38, торрент скачан: 359 раз

Понравилась раздача? Посмотрите эти:
  • Блудливая Калифорния / Californication // Сезон 6, Эпизоды с 1 по 12 (из 1 ...
  • Блудливая Калифорния / Californication // Сезон 6, Эпизоды с 1 по 12 (из 12 ...
  • Блудливая Калифорния / Californication // Сезон 6, эпизоды с 1 по 12 (из 12 ...
  • Блудливая Калифорния / Californication // Сезон 6, Эпизоды с 1 по 12 (из 12 ...
  • Блудливая Калифорния / Californication // Сезон 6, эпизоды с 1 по 11 (из 12 ...
  • Блудливая Калифорния / Californication // Сезон 6, Эпизоды с 1 по 11 (из 12 ...
  • Блудливая Калифорния / Californication // Сезон 6, Эпизоды с 1 по 12 (из 12 ...
  • Блудливая Калифорния / Californication // Сезон 6, Эпизоды с 1 по 11 (из 12 ...
  • Блудливая Калифорния / Californication // Сезон 6, эпизоды с 1 по 10 (из 12 ...
  • Блудливая Калифорния / Californication // Сезон 6, Эпизоды с 1 по 10 (из 12 ...
  • Блудливая Калифорния / Californication // Сезон 6, эпизоды с 1 по 8 (из 12) ...
  • Блудливая Калифорния / Californication // Сезон 6, эпизоды с 1 по 7 (из 12) ...
  • Блудливая Калифорния / Californication // Сезон 6, Эпизоды с 1 по 7 (из 12) ...
  • Блудливая Калифорния / Californication // Сезон 6, эпизоды с 1 по 6 (из 12) ...
  • Блудливая Калифорния / Californication // Сезон 6, эпизоды с 1 по 5 (из 12) ...
  • Блудливая Калифорния / Californication // Сезон 3, Эпизоды с 1 по 12 (из 12 ...
  • Блудливая Калифорния / Californication // Сезон 5, Эпизоды с 1 по 12 (из 12 ...
  • Блудливая Калифорния / Californication // Сезон 5, Эпизоды с 1 по 12 (из 12 ...
  • Блудливая Калифорния / Californication // Сезон 5, Эпизоды с 1 по 12 (из 12 ...
  • Блудливая Калифорния / Californication // Сезон 6, Эпизод 1 (из 12) ( комед ...
  • Блудливая Калифорния / Californication // Сезон 4, Эпизоды с 1 по 12 (из 1 ...
  • Блудливая Калифорния / Californication // Сезон 5, Эпизод 1 (из 12) ( комед ...
  • Блудливая Калифорния / Californication // Сезон 5, Эпизод 2 (из 12) ( комед ...
  • Блудливая Калифорния / Californication // Сезон 5, Эпизод 3 (из 12) ( комед ...
  • Блудливая Калифорния / Californication // Сезон 5, Эпизоды с 1 по 9 (из 12) ...
  • Информация
    Посетители, находящиеся в группе Гости, не могут оставлять комментарии к данной публикации.