вход на сайт

Имя пользователя :
Пароль :

Восстановление пароля Регистрация
Блудливая Калифорния / Californication // Cезон 1, Эпизоды с 1 по 12 (из 12) (комедия, драма, 2007) [WEB-DL 720p, Дубляж + Одноголосый (закадровый) от NovaFilm + Одноголосый (закадровый) от Квадрат Малевича + Оригинал]
Рейтинг:
(голосов: 1)



[img]{THEME}/images/logopost.png[/img]



Блудливая Калифорния / Californication

Сезон 1, Эпизоды с 1 по 12 (из 12)

Год выпуска: 2007
Страна: США
Производство: Showtime
Жанр: комедия, драма

Режиссёр: Том Капинос
В ролях: Дэвид Духовны, Наташа МакЭлхоун, Мадлен Мартин, Эван Хэндлер, Памела Адлон, Мадлен Зима, Каллум Кейт Ренни, Рэйчел Майнер, Карла Галло, Ева Амурри

Перевод: Дубляж + Одноголосый (закадровый) NovaFilm + Одноголосый (закадровый) Квадрат Малевича + Оригинал
Озвучка: NovaFilm, Квадрат Малевича
Субтитры: Английские

Описание: Талантливый и некогда известный писатель Хэнк Муди переживает творческий кризис. Отсутствие вдохновения он с лихвой компенсирует алкоголем, наркотиками и красивыми женщинами. Подкупающая прямота, чувство юмора и яркая харизма привлекают к нему сердца калифорнийских красавиц. Но его сердце занято — он любящий отец своей 13-летней дочери, и всё ещё влюблён в её маму — свою бывшую подружку…

Список эпизодов: ▼
Episode 1: Pilot / Пилотная серия
Episode 2: Hell-A Woman / Женщины Лос-Анжелеса
Episode 3: The Whore of Babylon / Вавилонская блудница
Episode 4: Fear and Loathing at the Fundraiser / Страх и ненависть благотворительности
Episode 5: LOL / О.К.С.
Episode 6: Absinthe Makes the Heart Grow Fonder / Абсент пробуждает нежные чувства
Episode 7: Girls, Interrupted / Девочки, Интермедия
Episode 8: California Son / Калифорнийский сын
Episode 9: Filthy Lucre / Презренный металл
Episode 10: The Devils Threesome / Адская групповушка
Episode 11: Turn the Page / Перевернуть страницу
Episode 12: The Last Waltz / Последний вальс

IMDB: 8.40 (24 805)
КиноПоиск: 8.330 (16 688)

Внимание! В сериале присутствует ненормативная лексика и сцены с обнаженной натурой!

Оригинальное название сериала образовано слиянием слов: Californication = California + Fornication (англ. Fornication . внебрачная связь, блуд.)

Качество: WEB-DL 720p
Продолжительность: по ~00:30:00

Формат: MKV
Видео кодек: MPEG4/AVC
Аудио кодек: AC3
Свойства видео: 1280x720 at 25.000 fps, MPEG-4 AVC, ~4000 kbps avg, 0.177 bit/pixel
Свойства аудио#1: Russian: 48 kHz, AC3, 2/0 (L,R), ~192.00 kbps avg |Дубляж|
Свойства аудио#2: Russian: 48 kHz, AC3, 2/0 (L,R), ~192.00 kbps avg |Одноголосый закадровый, NovaFiLM|
Свойства аудио#3: Russian: 48 kHz, AC3, 2/0 (L,R), ~192.00 kbps avg |Одноголосый закадровый, Квадрат Малевича|
Свойства аудио#4: English: 48 kHz, AC3, 3/2 (L,C,R,l,r) + LFE ch, ~384.00 kbps avg

MeDiAiNfO ▼
General
Complete name : Californication [1x01] Pilot.mkv
Format : Matroska
Format version : Version 1
File size : 1.14 GiB
Duration : 33mn 1s
Overall bit rate : 4 960 Kbps
Encoded date : UTC 2009-11-15 12:33:37
Writing application : mkvmerge v2.4.0 (Fumbling Towards Ecstasy) built on Oct 11 2008 20:13:15
Writing library : libebml v0.7.7 + libmatroska v0.8.1

Video
ID : 1
Format : AVC
Format/Info : Advanced Video Codec
Format profile : [email protected]
Format settings, CABAC : No
Format settings, ReFrames : 2 frames
Codec ID : V_MPEG4/ISO/AVC
Duration : 33mn 1s
Bit rate : 3 901 Kbps
Width : 1 280 pixels
Height : 720 pixels
Display aspect ratio : 16:9
Frame rate : 23.976 fps
Color space : YUV
Chroma subsampling : 4:2:0
Bit depth : 8 bits
Scan type : Progressive
Bits/(Pixel*Frame) : 0.177
Stream size : 922 MiB (79%)
Language : English
Color primaries : BT.709-5, BT.1361, IEC 61966-2-4, SMPTE RP177
Transfer characteristics : BT.709-5, BT.1361
Matrix coefficients : BT.709-5, BT.1361, IEC 61966-2-4 709, SMPTE RP177

Audio #1
ID : 2
Format : AC-3
Format/Info : Audio Coding 3
Mode extension : CM (complete main)
Codec ID : A_AC3
Duration : 33mn 1s
Bit rate mode : Constant
Bit rate : 192 Kbps
Channel(s) : 2 channels
Channel positions : Front: L R
Sampling rate : 48.0 KHz
Bit depth : 16 bits
Compression mode : Lossy
Stream size : 45.4 MiB (4%)
Title : Dub DD 2.0 @ 192 kbps
Language : Russian

Audio #2
ID : 3
Format : AC-3
Format/Info : Audio Coding 3
Mode extension : CM (complete main)
Codec ID : A_AC3
D
b42d380baf58e206d180609318674520e2713cb6Блудливая Калифорния / Californication // Cезон 1, Эпизоды с 1 по 12 (из 12) (комедия, драма, 2007) [WEB-DL 720p, Дубляж + Одноголосый (закадровый) от NovaFilm + Одноголосый (закадровый) от Квадрат Малевича + Оригинал] Блудливая Калифорния / Californication // Cезон 1, Эпизоды с 1 по 12 (из 12) (комедия, драма, 2007) [WEB-DL 720p, Дубляж + Одноголосый (закадровый) от NovaFilm + Одноголосый (закадровый) от Квадрат Малевича + Оригинал] " />

Аплоадер: Админ, дата: 13-01-2012, 22:07, торрент скачан: 359 раз

Понравилась раздача? Посмотрите эти:
  • Блудливая Калифорния / Californication // Сезон 6, Эпизоды с 1 по 12 (из 1 ...
  • Блудливая Калифорния / Californication // Сезон 6, Эпизоды с 1 по 12 (из 12 ...
  • Блудливая Калифорния / Californication // Сезон 6, Эпизоды с 1 по 12 (из 12 ...
  • Блудливая Калифорния / Californication // Сезон 6, Эпизоды с 1 по 7 (из 12) ...
  • Блудливая Калифорния / Californication // Сезон 1, Эпизоды с 1 по 12 (12) ...
  • Блудливая Калифорния / Californication // Сезон 2, Эпизоды с 1 по 12 (12) ...
  • Блудливая Калифорния / Californication // Сезон 1, Эпизоды с 1 по 12 (12) ...
  • Блудливая Калифорния / Californication // Сезон 1, Эпизоды с 1 по 12 (12) ...
  • Блудливая Калифорния / Californication // Сезон 3, эпизоды с 1 по 12 (из 12 ...
  • Блудливая Калифорния / Californication // Сезоны с 1 по 3 (из 5), эпизоды с ...
  • Блудливая Калифорния / Californication // Сезон 4, Эпизоды с 1 по 12 (из 12 ...
  • Блудливая Калифорния / Californication // Сезон 5, Эпизоды с 1 по 12 (из 12 ...
  • Блудливая Калифорния / Californication // Сезон 5, Эпизоды с 1 по 12 (из 12 ...
  • Блудливая Калифорния / Californication // Сезон 5, Эпизоды с 1 по 12 (из 12 ...
  • Блудливая Калифорния / Californication // Сезон 5, Эпизоды с 1 по 12 (из 12 ...
  • Блудливая Калифорния / Californication // Сезон 6, Эпизоды с 1 по 2 (из 12) ...
  • Блудливая Калифорния / Californication // Сезон 6, Эпизоды с 1 по 2 (из 12) ...
  • Блудливая Калифорния / Californication // Сезон 6, Эпизоды с 1 по 2 (из 12) ...
  • Блудливая Калифорния / Californication // Сезон 6, Эпизод 1 (из 12) ( комед ...
  • Блудливая Калифорния / Californication // Сезон 6, Эпизод 1 (из 12) ( комед ...
  • Блудливая Калифорния / Californication // Сезон 1, эпизоды с 1 по 12 (из 12 ...
  • Блудливая Калифорния / Californication // Сезон 4, Эпизод с 1 по 12 (из 12) ...
  • Блудливая Калифорния / Californication // Сезон 5, Эпизод 1 (из 12) ( комед ...
  • Блудливая Калифорния / Californication // Сезон 5, Эпизод 2 (из 12) ( комед ...
  • Блудливая Калифорния / Californication // Сезон 5, Эпизод 3 (из 12) ( комед ...
  • Информация
    Посетители, находящиеся в группе Гости, не могут оставлять комментарии к данной публикации.