вход на сайт

Имя пользователя :
Пароль :

Восстановление пароля Регистрация
Полиция Гавайев (Гавайи 5-0) / Hawaii Five-O // Сезон 3, эпизоды с 1 по 12 (из 23) (Боевик, Драма, Криминал, 2012-2013) [WEB-DL 720p, Профессиональный (многоголосый, закадровый от LostFilm) + Оригинал]
Рейтинг:
(голосов: 1)



[img]{THEME}/images/logopost.png[/img]



Полиция Гавайев / Hawaii Five-0

Сезон 3, Эпизоды с 1 по 12 (из 23)

Год выпуска: 2012 - 2013
Страна: США
Производство: CBS
Жанр: Боевик, драма, криминал

Режиссёр: Аллан Аркуш, Роб Бэйли, Ричард Шепард
В ролях: Алекс О’Локлин, Скотт Каан, Дэниэл Дэ Ким, Грейс Пак, Тайлор Уайли, Teilor Grubbs, Маси Ока, Клер Вандер Бум, Дэннис Чун, Марк Дакаскос и др.

Перевод: Профессиональный (многоголосый, закадровый от LostFilm) + Оригинал
Озвучка: Студия "LostFilm"
Субтитры: English (вшитые)

Описание:Детектив Стив МакГарретт, бывший морской офицер с массой наград, а теперь полицейский, возвращается в Оаху расследовать убийство отца. Он остается на острове, после того, как губернатор штата Гавайи убедил его возглавить новую команду. Команда будет действовать по его правилам, при поддержке губернатора, без бюрократических проволочек, и с полным иммунитетом, все это — чтобы поймать самую крупную «дичь» в городе.
К МакГаррету присоединяется детектив Дэнни «Данно» Уильямс, недавно переведенный из Нью-Джерси полицейский, который предпочел бы небоскребы пляжам, но готов бороться с преступностью, чтобы его 8-летняя дочь чувствовала себя на островах в безопасности; и Чин Хо Келли, бывший детектив полиции Гонолулу, которого ошибочно обвинили в коррупции, и который когда-то был протеже отца МакГаррета. Двоюродная сестра Чина, Коно, прекрасная и бесстрашная уроженка островов, недавно выпустилась из академии, и рвется доказать, что она достойна места в элите департамента. МакГаррет клянется завершить дело отца, а члены нового спецотряда Five-O, может, и грызутся друг с другом, но настроены уничтожить преступность в пятидесятом штате.

Список эпизодов: ▼
Эпизод 01. День матери / La O Na Makuahine
Эпизод 02. Сомнение / Kanalua
Эпизод 03. В дрейфе / Lana I Ka Moana
Эпизод 04. Неудача / Popilikia
Эпизод 05. Подношение / Mohai
Эпизод 06. Воспоминания о прошлом / I Ka Wa Mamua
Эпизод 07. Секрет / Ohuna
Эпизод 08. Дьяволица / Wahineinoloa
Эпизод 09. Жажда смерти / Haawe Make Loa
Эпизод 10. Поход / HuakaI Kula
Эпизод 11. Защитник / Kahu
Эпизод 12. Запрет / Kapu


Релиз:

Доп. информация: ▼Код:
General
Unique ID : 200728761276480545420465050399324246611 (0x9702F40530F9A38EA88BC75DA1101253)
Complete name : D:РАЗДАЧИ (Запас)Hawaii.Five-0.S03.720p.WEB-DL.Rus.Eng.HDCLUBHawaii.Five-0.S03E01.720p.WEB-DL.Rus.Eng.HDCLUB.mkv
Format : Matroska
File size : 1.52 GiB
Duration : 43mn 42s
Overall bit rate : 4 977 Kbps
Movie name : Hawaii Five-0 [Season 3] (2012) - Release for HDCLUB by vlaluk
Encoded date : UTC 2012-09-28 05:16:18
Writing application : mkvmerge v5.8.0 (No Sleep / Pillow) built on Sep 2 2012 15:37:04
Writing library : libebml v1.2.3 + libmatroska v1.3.0

Video
ID : 1
Format : AVC
Format/Info : Advanced Video Codec
Format profile : [email protected]
Format settings, CABAC : No
Format settings, ReFrames : 2 frames
Format settings, GOP : M=2, N=39
Codec ID : V_MPEG4/ISO/AVC
Duration : 43mn 42s
Bit rate : 4 110 Kbps
Width : 1 280 pixels
Height : 720 pixels
Display aspect ratio : 16:9
Frame rate : 23.976 fps
Color space : YUV
Chroma subsampling : 4:2:0
Bit depth : 8 bits
Scan type : Progressive
Bits/(Pixel*Frame) : 0.186
Stream size : 1.25 GiB (83%)
Title : Season 3, Episode 01: La O Na Makuahine / День матери - Release for HDCLUB by vlaluk
Language : English
Color primaries : BT.709-5, BT.1361, IEC 61966-2-4, SMPTE RP177
Transfer characteristics : BT.709-5, BT.1361
Matrix coefficients : BT.709-5, BT.1361, IEC 61966-2-4 709, SMPTE RP177

Audio #1
ID : 2
Format : AC-3
Format/Info : Audio Coding 3
Mode extension : CM (complete main)
Codec ID : A_AC3
Duration : 43mn 42s
Bit rate mode : Constant
Bit rate : 384 Kbps
Channel(s) : 6 channels
Channel positions : Front: L C R, Side: L R, LFE
Sampling rate : 48.0 KHz
Bit depth : 16 bits
Compression mode : Lossy
Stream size : 120 MiB (8%)
Title :
077e485767779f1fb85d4bf85c8b2ed75f1c7587Полиция Гавайев (Гавайи 5-0) / Hawaii Five-O // Сезон 3, эпизоды с 1 по 12 (из 23) (Боевик, Драма, Криминал, 2012-2013) [WEB-DL 720p, Профессиональный (многоголосый, закадровый от LostFilm) + Оригинал] Полиция Гавайев (Гавайи 5-0) / Hawaii Five-O // Сезон 3, эпизоды с 1 по 12 (из 23) (Боевик, Драма, Криминал, 2012-2013) [WEB-DL 720p, Профессиональный (многоголосый, закадровый от LostFilm) + Оригинал] " />

Аплоадер: Админ, дата: 27-01-2013, 14:08, торрент скачан: 359 раз

Понравилась раздача? Посмотрите эти:
  • Полиция Гавайев (Гавайи 5-0) / Hawaii Five-O // Сезон 4, эпизоды с 1 по 13 ...
  • Полиция Гавайев (Гавайи 5-0) / Hawaii Five-O // Сезон 4, эпизоды с 1 по 13 ...
  • Полиция Гавайев (Гавайи 5-0) / Hawaii Five-O // Сезон 4, эпизоды с 1 по 7 ( ...
  • Полиция Гавайев (Гавайи 5-0) / Hawaii Five-O // Сезон 4, эпизоды с 1 по 8 ( ...
  • Полиция Гавайев (Гавайи 5-0) / Hawaii Five-O // Сезон 3, эпизоды с 1 по 24 ...
  • Полиция Гавайев (Гавайи 5-0) / Hawaii Five-O // Сезон 3, эпизоды с 1 по 20 ...
  • Полиция Гавайев (Гавайи 5-0) / Hawaii Five-O // Сезон 3, эпизоды с 1 по 20 ...
  • Полиция Гавайев (Гавайи 5-0) / Hawaii Five-O // Сезон 3, эпизоды с 1 по 21 ...
  • Полиция Гавайев (Гавайи 5-0) / Hawaii Five-O // Сезон 3, эпизоды с 1 по 20 ...
  • Полиция Гавайев (Гавайи 5-0) / Hawaii Five-O // Сезон 3, эпизоды с 1 по 19 ...
  • Полиция Гавайев (Гавайи 5-0) / Hawaii Five-O // Сезон 3, эпизоды с 1 по 18 ...
  • Полиция Гавайев (Гавайи 5-0) / Hawaii Five-O // Сезон 3, эпизоды с 1 по 17 ...
  • Полиция Гавайев (Гавайи 5-0) / Hawaii Five-O // Сезон 3, эпизоды с 1 по 17 ...
  • Полиция Гавайев (Гавайи 5-0) / Hawaii Five-O // Сезон 3, эпизоды с 1 по 16 ...
  • Полиция Гавайев (Гавайи 5-0) / Hawaii Five-O // Сезон 3, эпизоды с 1 по 17 ...
  • Полиция Гавайев (Гавайи 5-0) / Hawaii Five-O // Сезон 3, эпизоды с 1 по 16 ...
  • Полиция Гавайев (Гавайи 5-0) / Hawaii Five-O // Сезон 1, эпизоды с 1 по 24 ...
  • Красавцы / Entourage // Сезон 1, эпизоды с 1 по 8 (из 8) (Комедия, Драма , ...
  • Полиция Гавайев (Гавайи 5-0) / Hawaii Five-O // Сезон 2, эпизоды с 1 по 23 ...
  • Полиция Гавайев (Гавайи 5-0) / Hawaii Five-O // Сезон 2, эпизоды с 1 по 23 ...
  • Полиция Гавайев (Гавайи 5-0) / Hawaii Five-O // Сезон 1, эпизоды с 1 по 24 ...
  • Полиция Гавайев (Гавайи 5-0) / Hawaii Five-O // Сезон 3, эпизоды с 1 по 14 ...
  • Полиция Гавайев (Гавайи 5-0) / Hawaii Five-O // Сезон 3, эпизоды с 1 по 14 ...
  • Полиция Гавайев (Гавайи 5-0) / Hawaii Five-O // Сезон 3, эпизоды с 1 по 12 ...
  • Полиция Гавайев (Гавайи 5-0) / Hawaii Five-O // Сезон 3, эпизоды с 1 по 12 ...
  • Информация
    Посетители, находящиеся в группе Гости, не могут оставлять комментарии к данной публикации.