вход на сайт

Имя пользователя :
Пароль :

Восстановление пароля Регистрация
Рухнувшие небеса / Falling Skies // Cезон 1, эпизоды с 1 по 10 (из 10) (фантастика, 2011) [WEB-DLRip, Любительский (многоголосый, закадровый) от BaibaKo]
Рейтинг:
(голосов: 1)



[img]{THEME}/images/logopost.png[/img]



Рухнувшие небеса / Falling Skies
Cезон 1, эпизоды с 1 по 10 (из 10)

Год выпуска: 2011
Страна: США
Производство: DreamWorks Television
Жанр: фантастика

Режиссёр: Грег Биман
В ролях: Колин Каннингэм,Максим Найт,Ноа Уайл,Мун Бладгуд,Мфо Коахо,Сара Картер,Коннор Джессуп,Брюс Грэй,Дейл Дай,Дрю Рой

Перевод: Любительский (многоголосый, закадровый) от BaibaKo
Озвучка: BaibaKo (Styx, Алексей Кузнецов, ChrisTref, Лира Грим, Татьяна Оболевич)
Субтитры: отсутствуют

Описание: Инопланетное вторжение стало для землян полной неожиданностью. Несколько выживших объединяются, чтобы ежедневно бороться за выживание и попытаться наладить связь с такими же как они «счастливчиками» из других городов, и дать отпор захватчикам из космоса

Список эпизодов ▼Эпизод 01. Живи и учись / Live and Learn (19 июня 2011)
Эпизод 02. Арсенал / The Armory (19 июня 2011)
Эпизод 03. Военнопленный / Prisoner of War (26 июня 2011)
Эпизод 04. Благодарность / Grace (3 июля 2011)
Эпизод 05. Убрать без шума / Silent Kill (10 июля 2011)
Эпизод 06. Убежище: Часть 1 / Sanctuary: Part 1 (17 июля 2011)
Эпизод 07. Убежище: Часть 2 / Sanctuary: Part 2 (24 июля 2011)
Эпизод 08. То что внутри нас / What Hides Beneath (31 июля 2011)
Эпизод 09. Мятеж / Mutiny (7 августа 2011)
Эпизод 10. 8 часов / Eight Hours (7 августа 2011)



Все раздачи сериала

Качество: WEB-DLRip
Продолжительность: по ~ 00:45:00

Формат: AVI
Видео кодек: XviD
Аудио кодек:MP3
Видео: 720x400 (1.80:1), 23.976 fps, XviD MPEG-4, 1277 kbps avg, 0.19 bit/pixel
Аудио #1: RUS: 48 kHz, MPEG Layer 3, 2 ch, 192.00 kbps avg
Аудио #2: ENG: 48 kHz, MPEG Layer 3, 2 ch, 192.00 kbps avg
MI ▼General
Complete name : I:ЗакачкиРухнувшие небесаFalling.Skies.s01e01.Live.And.Learn.WEB-DLRip.Rus-Eng.avi
Format : AVI
Format/Info : Audio Video Interleave
File size : 505 MiB
Duration : 42mn 7s
Overall bit rate : 1 677 Kbps
Writing application : VirtualDubMod 1.5.10.2 (build 2540/release)
Writing library : VirtualDubMod build 2540/release
Video
Format : MPEG-4 Visual
Format profile : Streaming [email protected]
Format settings, BVOP : Yes
Format settings, QPel : No
Format settings, GMC : No warppoints
Format settings, Matrix : Default (H.263)
Muxing mode : Packed bitstream
Codec ID : XVID
Codec ID/Hint : XviD
Duration : 42mn 7s
Bit rate : 1 279 Kbps
Width : 720 pixels
Height : 400 pixels
Display aspect ratio : 16/9
Frame rate : 23.976 fps
Resolution : 24 bits
Colorimetry : 4:2:0
Scan type : Progressive
Bits/(Pixel*Frame) : 0.185
Stream size : 385 MiB (76%)
Writing library : XviD 1.2.1 (UTC 2008-12-04)
Audio #1
Format : MPEG Audio
Format version : Version 1
Format profile : Layer 3
Codec ID : 55
Codec ID/Hint : MP3
Duration : 42mn 7s
Bit rate mode : Constant
Bit rate : 192 Kbps
Channel(s) : 2 channels
Sampling rate : 48.0 KHz
Resolution : 16 bits
Stream size : 57.9 MiB (11%)
Alignment : Aligned on interleaves
Interleave, duration : 42 ms (1.00 video frame)
Interleave, preload duration : 504 ms
Audio #2
Format : MPEG Audio
Format version : Version 1
Format profile : Layer 3
Codec ID : 55
Codec ID/Hint : MP3
Duration : 42mn 7s
Bit rate mode : Constant
Bit rate : 192 Kbps
Channel(s) : 2 channels
Sampling rate : 48.0 KHz
Resolution : 16 bits
Stream size : 57.9 MiB (11%)
Alignment : Aligned on interleaves
Interleave, duration : 42 ms (1.00 video frame)
Interleave, preload duration : 504 ms
Writing library : LAME3.98.2


069b88f930705e4397fad13677eef276f8883447Рухнувшие небеса / Falling Skies // Cезон 1, эпизоды с 1 по 10 (из 10) (фантастика, 2011) [WEB-DLRip, Любительский (многоголосый, закадровый) от BaibaKo] Рухнувшие небеса / Falling Skies // Cезон 1, эпизоды с 1 по 10 (из 10) (фантастика, 2011) [WEB-DLRip, Любительский (многоголосый, закадровый) от BaibaKo] " />

Аплоадер: Админ, дата: 13-08-2012, 01:57, торрент скачан: 359 раз

Понравилась раздача? Посмотрите эти:
  • Погнали! / Getaway (Кортни Соломон, Боевик,Криминал, 2013) [HDRip, Професси ...
  • Мужество / Wymyk (Грег Зглински, драма, 2011) [DVDRip, Любительский (одного ...
  • Альбатрос / Albatross (Найал МакКормик, Драма, 2011) [DVDRip, Профессиональ ...
  • Рухнувшие небеса (Сошедшие с небес) / Falling Skies // Cезон 1, эпизоды с 1 ...
  • Формула 1 2011 / Этап 17 из 19 / Гран-При Индии / Гонка / Спорт 1 [30.10.20 ...
  • Чемпионат Испании 2011-12 / 36-й тур / Реал Мадрид - Севилья / НТВ+ [Футбол ...
  • Рухнувшие небеса / Falling Skies // Cезон 1, эпизоды с 1 по 10 (из 10) (Фан ...
  • Рухнувшие небеса (Сошедшие с небес) / Falling Skies // Cезон 1, эпизоды с 1 ...
  • Неделя в NBA с В.Гомельским / НТВ+ [28.06.2011, SD, XviD, RU, SAT]
  • Вскрытие инопланетянина/Alien Autopsy (Джонни Кэмпбелл, Комедия, фантастика ...
  • Рухнувшие небеса (Сошедшие с небес) / Falling Skies // Cезон 1, эпизоды с 1 ...
  • Скуби-Ду: Нападение Пантазаура / Scooby-Doo! Legend of the Phantosaur (Дугл ...
  • Аббатство Даунтон / Downton Abbey // Сезон 2, эпизоды с 1 по 8 (из 8) (Драм ...
  • Гавр / Le Havre (Аки Каурисмяки, драма, комедия, 2011) [HDRip, Любительский ...
  • Неприкасаемые / Intouchables (Оливье Накаш, Эрик Толедано, Драма, 2011) [BD ...
  • Чемпионат Англии 2011-12 / 35 тур / Манчестер Юнайтед - Эвертон / Спорт 1 [ ...
  • Чемпионат Англии 2011-2012 / Championship / 45-й Тур / Обзор Матчей / НТВ+ ...
  • Замёрзший мир / 2012: Ice Age (Трэвис Форт, фантастика, боевик, 2011) [HDRi ...
  • День второй: Битва за Нью-Йорк / Battle: New York, Day 2 (Эндрю Беллвар, фа ...
  • Путешествие Чарли / Next Stop for Charlie // Сезон 1, эпизоды с 1 по 10 (и ...
  • Мгновение любви / Here (Браден Кинг, Драма, мелодрама, приключения, 2011) [ ...
  • Рухнувшие небеса (Сошедшие с небес) / Falling Skies // Cезон 2, эпизоды с 1 ...
  • Рухнувшие небеса (Сошедшие с небес) / Falling Skies // Сезон 2, эпизоды с 1 ...
  • Рухнувшие небеса (Сошедшие с небес) / Falling Skies // Сезон 2, эпизоды с 1 ...
  • Искажение / Skew (Сейв Челенз, ужасы, триллер, 2011) [HDRip, Профессиональн ...
  • Информация
    Посетители, находящиеся в группе Гости, не могут оставлять комментарии к данной публикации.