вход на сайт

Имя пользователя :
Пароль :

Восстановление пароля Регистрация
Рухнувшие небеса / Falling Skies // Cезон 1, эпизоды с 1 по 10 (из 10) (Фантастика, боевик, триллер, 2011) [HDTVRip 720p, Профессиональный (многоголосый, закадровый от LostFilm) + Оригинал + SUB (rus, eng)]
Рейтинг:
(голосов: 1)



[img]{THEME}/images/logopost.png[/img]



Рухнувшие небеса | Falling Skies
«Мы не просто боремся за свою жизнь. Мы сражаемся за наше существование.»
Сезон 1, Эпизоды с 1 по 10 (из 10)
Год выпуска: 2011
Страна: США , Канада
Производство: DreamWorks Television, Invasion Productions
Жанр: фантастика, боевик, триллер

Режиссёры: Грег Биман / Greg Beeman, Серджо Мимика-Геззан / Sergio Mimica-Gezzan, Фред Туа / Fred Toye
В главных ролях: Ноа Уайл (Tom Mason), Мун Бладгуд (Anne Glass), Дрю Рой (Hal Mason), Максим Найт (Matt Mason), Сейшелл Гэбриел (Lourdes), Питер Шинкода (Dai), Уилл Пэттон (Captain Weaver), Мфо Коахо (Anthony), Сара Картер (Margaret), Колин Каннингэм (John Pope)

Перевод: Профессиональный (многоголосый, закадровый от LostFilm) + Оригинал
Озвучка: Студия "Kravec"
Субтитры: Русские, английские (вшитые)

Описание: Инопланетное вторжение стало для землян полной неожиданностью. Несколько выживших объединяются, чтобы ежедневно бороться за выживание и попытаться наладить связь с такими же как они «счастливчиками» из других городов, и дать отпор захватчикам из космоса.
Список эпизодов: ▼Эпизод 01. Живи и учись / Live and Learn (19 июня 2011)
Эпизод 02. Арсенал / The Armory (19 июня 2011)
Эпизод 03. Военнопленный / Prisoner of War (26 июня 2011)
Эпизод 04. Благодарность / Grace (3 июля 2011)
Эпизод 05. Убрать без шума / Silent Kill (10 июля 2011)
Эпизод 06. Убежище: Часть 1 / Sanctuary: Part 1 (17 июля 2011)
Эпизод 07. Убежище: Часть 2 / Sanctuary: Part 2 (24 июля 2011)
Эпизод 08. То что внутри нас / What Hides Beneath (31 июля 2011)
Эпизод 09. Мятеж / Mutiny (7 августа 2011)
Эпизод 10. 8 часов / Eight Hours (7 августа 2011)Доп. информация: ▼Русская звуковая дорожка (LostFilm) сделана путем наложения чистого голоса озвучивателей на центральный канал оригинальной дорожки. Качество идентично английской звуковой дорожке.


Релиз от:
Автор рипа, работа со звуком: CEZAR

Все раздачи сериала

Качество: HDTVRip 720p [исходник HDTV 1080i]
Продолжительность: По ~ 00:45:00

Формат: MKV
Видео кодек: H.264
Аудио кодек: AC3
Свойства видео: 1280x720, 23.976 fps, x264, ~5500 kbps, 0.249 bit/pixel
Свойства аудио [RU]: Dolby Digital 5.1, 48 kHz, ~448 kbps - (LostFilm)
Свойства аудио [EN]: Dolby Digital 5.1, 48 kHz, ~448 kbps - (Оригинал)
Субтитры 1: Русские (Notabenoid)
Субтитры 2: Английские (для слабослышащих)MediaInfo: ▼General
Complete name : Falling.Skies.S01E01-02.720p.HDTV.DD5.1.x264.mkv
Format : Matroska
File size : 3.78 GiB
Duration : 1h 22mn
Overall bit rate : 6 523 Kbps
Encoded date : UTC 2011-07-02 07:57:48
Writing application : mkvmerge v3.0.0 (Hang up your Hang-Ups) built on Dec 12 2009 15:20:35
Writing library : libebml v0.7.9 + libmatroska v0.8.1

Video
ID : 1
Format : AVC
Format/Info : Advanced Video Codec
Format profile : [email protected]
Format settings, CABAC : Yes
Format settings, ReFrames : 5 frames
Codec ID : V_MPEG4/ISO/AVC
Duration : 1h 22mn
Bit rate mode : Variable
Bit rate : 5 497 Kbps
Maximum bit rate : 40.0 Mbps
Width : 1 280 pixels
Height : 720 pixels
Display aspect ratio : 16:9
Frame rate : 23.976 fps
Color space : YUV
Chroma subsampling : 4:2:0
Bit depth : 8 bits
Scan type : Progressive
Bits/(Pixel*Frame) : 0.249
Stream size : 3.18 GiB (84%)
Color primaries : BT.709-5, BT.1361, IEC 61966-2-4, SMPTE RP177
Transfer characteristics : BT.709-5, BT.1361
Matrix coefficients : BT.709-5, BT.1361, IEC 61966-2-4 709, SMPTE RP177

Audio #1
ID : 2
Format : AC-3
Format/Info : Audio Coding 3
Mode extension : CM (complete main)
Codec ID : A_AC3
Duration : 1h 22mn
Bit rate mode : Constant
Bit rate : 448 Kbps
Channel(s) : 6 channels
Channel positions : Front: L C R, Side: L R, LFE
Sampling rate : 48.0 KHz
Bit depth : 16 bits
Stream size : 266 MiB (7%)
Title : LostFilm
Language : Russian

Audio #2
ID : 3
Format : AC-3
Format/Info : Audio Coding 3
Mode extension : CM (complete main)
Codec ID : A_AC3
Duration : 1h 22mn
Bit rate mode : Constant
Bit rate : 448 Kbps
Channel(s) : 6 channels
Channel positions : Front: L
bb1a365f19fb88746e4b3e87ac433a41b280ad20Рухнувшие небеса / Falling Skies // Cезон 1, эпизоды с 1 по 10 (из 10) (Фантастика, боевик, триллер, 2011) [HDTVRip 720p, Профессиональный (многоголосый, закадровый от LostFilm) + Оригинал + SUB (rus, eng)] Рухнувшие небеса / Falling Skies // Cезон 1, эпизоды с 1 по 10 (из 10) (Фантастика, боевик, триллер, 2011) [HDTVRip 720p, Профессиональный (многоголосый, закадровый от LostFilm) + Оригинал + SUB (rus, eng)] " />

Аплоадер: Админ, дата: 17-09-2011, 22:12, торрент скачан: 359 раз

Понравилась раздача? Посмотрите эти:
  • Смертельная битва: Наследие / Mortal Kombat: Legacy // Сезон 1, эпизоды с 1 ...
  • Сонная Лощина / Sleepy Hollow // Cезон 1, эпизоды с 1 по 13 (из 13) (фантас ...
  • Спираль / Helix // Сезон 1, эпизод c 1 по 3 (из 13) (фантастика, триллер, 2 ...
  • Сонная Лощина / Sleepy Hollow // Cезон 1, эпизоды с 1 по 7 (из 13) (фантаст ...
  • Континуум / Continuum // Сезон 2, Эпизоды с 1 по 2 (из 10) (фантастика, три ...
  • Культ / Cult // Сезон 1, Эпизоды с 1 по 7 (из 13) (триллер, драма, детектив ...
  • Культ / Cult // Сезон 1, Эпизоды с 1 по 3 (из 13) (триллер, драма, детектив ...
  • Полиция Гавайев (Гавайи 5-0) / Hawaii Five-O // Сезон 3, эпизоды с 1 по 17 ...
  • Рухнувшие небеса (Сошедшие с небес) / Falling Skies // Cезон 1, эпизоды с 1 ...
  • Полиция Гавайев (Гавайи 5-0) / Hawaii Five-O // Сезон 3, эпизоды с 1 по 16 ...
  • Визитеры / V // Сезон 2, эпизоды с 1 по 10 (из 10) (Ив Симоно, Скотт Питерс ...
  • Отбросы (Долбанутые / Плохие) / Misfits // Cезон 3, Эпизоды с 0 по 8 (из 8) ...
  • Американская История Ужасов / American Horror Story // Сезон 1, эпизоды с 1 ...
  • Красавцы / Entourage // Сезон 1, эпизоды с 1 по 8 (из 8) (Комедия, Драма , ...
  • Красавцы / Entourage // Сезон 2, эпизоды с 1 по 14 (из 14) (Комедия, Драма ...
  • Красавцы / Entourage // Сезон 3, эпизоды с 1 по 20 (из 20) (Комедия, Драма ...
  • Красавцы / Entourage // Сезон 4, эпизоды с 1 по 12 (из 12) (Комедия, Драма ...
  • Блудливая Калифорния / Californication // Сезон 5, Эпизоды с 1 по 12 (из 12 ...
  • Рухнувшие небеса / Falling Skies // Cезон 1, эпизоды с 1 по 10 (из 10) (фа ...
  • Рухнувшие небеса (Сошедшие с небес) / Falling Skies // Cезон 1, эпизоды с 1 ...
  • Полиция Гавайев (Гавайи 5-0) / Hawaii Five-O // Сезон 3, эпизоды с 1 по 12 ...
  • Рухнувшие небеса (Сошедшие с небес) / Falling Skies // Cезон 1, эпизоды с 1 ...
  • Рухнувшие небеса (Сошедшие с небес) / Falling Skies // Cезон 2, эпизоды с 1 ...
  • Рухнувшие небеса (Сошедшие с небес) / Falling Skies // Сезон 2, эпизоды с 1 ...
  • Рухнувшие небеса (Сошедшие с небес) / Falling Skies // Сезон 2, эпизоды с 1 ...
  • Информация
    Посетители, находящиеся в группе Гости, не могут оставлять комментарии к данной публикации.