вход на сайт

Имя пользователя :
Пароль :

Восстановление пароля Регистрация
Синбад (Синдбад) / Sinbad // Сезон 1, эпизод с 1 по 3 (из 12) (фэнтэзи, приключения, 2012 ) [HDTVRip, Любительский (многоголосый, закадровый от To4ka) + Оригинал]
Рейтинг:
(голосов: 1)



[img]{THEME}/images/logopost.png[/img]




Синбад (Синдбад) / Sinbad
"Не бывать тебе на тверди земной дольше одного оборота Солнца"
Сезон 1, Эпизод с1 по 3 (из 12)
Год выпуска: 2012
Страна: Великобритания
Производство: Impossiblepictures Ltd.
Жанр: фэнтэзи, приключения
Режиссёр: Энди Уилсон / Andy Wilson
В ролях: Эллиот Найт, Дмитрий Леонидас, Марама Корлетт, Эллиот Коуэн, Навин Эндрюс, Орла Брэйди, Софи Оконедо и др.
Перевод: Любительский (многоголосый, закадровый) + Оригинал
Озвучка: To4ka
Субтитры: Нет
Описание: Сбежавший из родного города Басра, проклятый собственной бабушкой за неосторожные действия, приведшие к смерти брата, Синбад оказывается в открытом море на корабле "Провиденье" вместе с целым рядом колоритных персонажей. Пережив неистовый шторм, Синбад и его товарищи по плаванию вынуждены сплотиться перед лицом своих внутренних демонов, надежд, привязанностей и страхов. Синбаду предстоят героические странствия, чтобы снять с себя проклятье и принять свою судьбу.
Список эпизодов: ▼
1.Episode 1
2.Queen of the Water-Thieves
3.House of Games



Все раздачи сериала:
Релиз:
Качество: HDTVRip
Продолжительность: по ~ 00:43:00
Формат: AVI
Видео кодек: XviD
Аудио кодек: MPEG Layer 3
Свойства видео: 720x400 (16:9), 25.000 fps, ~1200 kbps, ~0.170 bit/pixel
Свойства аудио 1: 48 kHz, 2 ch, ~128 kbps |To4ka|
Свойства аудио 2: 48 kHz, 2 ch, ~128 kbps |Original|
"MediaInfo:" ▼TextОбщее
Полное имя : F:Sinbad.s01.2012.HDTVRip.Rus.Eng.[To4ka.TV]Sinbad.s01e01.2012.HDTVRip.Rus.Eng.[To4ka.TV].avi
Формат : AVI
Формат/Информация : Audio Video Interleave
Размер файла : 449 Мбайт
Продолжительность : 43 м.
Общий поток : 1434 Кбит/сек
Программа кодирования : VirtualDubModRus 1.5.10.2 (build 2542/release)
Библиотека кодирования : VirtualDubMod build 2542/release

Видео
Идентификатор : 0
Формат : MPEG-4 Visual
Профиль формата : Advanced [email protected]
Параметр BVOP формата : 1
Параметр QPel формата : Нет
Параметр GMC формата : Без точки перехода
Параметр матрицы формата : Выборочная
Идентификатор кодека : XVID
Идентификатор кодека/Подсказка : XviD
Продолжительность : 43 м.
Битрейт : 1163 Кбит/сек
Ширина : 720 пикселей
Высота : 400 пикселей
Соотношение сторон : 16:9
Частота кадров : 25,000 кадров/сек
Цветовое пространство : YUV
Субдискретизация насыщенности : 4:2:0
Битовая глубина : 8 бит
Тип развёртки : Прогрессивная
Метод сжатия : С потерями
Бит/(Пиксели*Кадры) : 0.162
Размер потока : 364 Мбайт (81%)
Библиотека кодирования : XviD 65

Аудио #1
Идентификатор : 1
Формат : MPEG Audio
Версия формата : Version 1
Профиль формата : Layer 3
Режим : Joint stereo
Расширение режима : MS Stereo
Идентификатор кодека : 55
Идентификатор кодека/Подсказка : MP3
Продолжительность : 43 м.
Вид битрейта : Постоянный
Битрейт : 128 Кбит/сек
Каналы : 2 канала
Частота : 48,0 КГц
Метод сжатия : С потерями
Размер потока : 40,1 Мбайт (9%)
Выравнивание : Соединение по промежуткам
Продолжительность промежутка : 40 мс. (1,00 видеокадр)
Время предзагрузки промежутка : 504 мс.

Аудио #2
Идентификатор : 2
Формат : MPEG Audio
Версия формата : Version 1
Профиль формата : Layer 3
Режим : Joint stereo
Расширение режима : MS Stereo
Идентификатор кодека : 55
Идентификатор кодека/Подсказка : MP3
Продолжительность : 43 м.
Вид битрейта : Постоянный
Битрейт : 128 Кбит/сек
Каналы : 2 канала
Частота : 48,0 КГц
Метод сжатия : С потерями
Размер потока : 40,1 Мбайт (9%)
Выравнивание : Разделение по промежуткам
Продолжительность промежутка : 40 мс. (1,00 видеокадр)
Время предзагрузки промежутка : 500 мс.
Внимание! Раздача ведётся путём добавления новых серий; ▼При каждом добавлении создаётся новый торрент. Чтобы начать докачку новой серии, пользователям необходимо сделать следующее:
(1) остановить скачивание,
(2) удалить старый торрент у себя из клиента (старые серии удалять не надо),
(3) скачать новый торрент и запустить его у себя в клиенте вместо старого, при этом указать клиенту путь в старую папку куда и должно происходить скачивание новых серий.
Ваш клиент при этом долж
ec6f2818e2b98c1d623649d7d426120af37b77acСинбад (Синдбад) / Sinbad // Сезон 1, эпизод с 1 по 3 (из 12) (фэнтэзи, приключения, 2012 ) [HDTVRip, Любительский (многоголосый, закадровый от To4ka) + Оригинал] Синбад (Синдбад) / Sinbad // Сезон 1, эпизод с 1 по 3 (из 12) (фэнтэзи, приключения, 2012 ) [HDTVRip, Любительский (многоголосый, закадровый от To4ka) + Оригинал] " />

Аплоадер: Админ, дата: 26-07-2012, 22:01, торрент скачан: 359 раз

Понравилась раздача? Посмотрите эти:
  • Слежка / The Letter (Джей Ананья, Триллер, драма, 2012) [DVDRip, Профессион ...
  • Вице-президент / Veep // Сезон 1, эпизоды с 1 по 3 (из 8) (комедия, 2012) ...
  • Плебеи / Plebs // Сезон 1, эпизоды с 1 по 5 (из 6) (Комедия, 2013) [WEB-DLr ...
  • Континуум: Вебсериал / Continuum Web Series // Сезон 1, эпизоды с 1 по 9 (и ...
  • Плебеи / Plebs // Сезон 1, эпизоды с 1 по 2 (из 6) (Комедия, 2013) [HDTVRip ...
  • Это - Англия. Год 1986 / This Is England 86 // Сезон 1, эпизоды с 1 по 4 (и ...
  • Айрис 2 / A-i-ri-seu 2 / IRIS 2 // Сезон 2, Эпизод 1 (из 20) (2013) [HDTVRi ...
  • Синбад и Глаз Тигра / Sinbad and the Eye of the Tiger (Сэм Уонамейкер , фэн ...
  • Синбад (Синдбад) / Sinbad // Сезон 1, эпизоды с 1 по 12 (из 12) (приключени ...
  • Вечерний Ургант // Сезон 2. Выпуск 56 (ТВ-шоу, 11.12.2012) [SATRip, Не треб ...
  • Бог любви / God of Love (Люк Мэзени, Короткометражка, фэнтези, комедия, мел ...
  • Любовь по расписанию / Поезд (Сергей Мезенцев, мелодрама, 2012) [HDTVRip, Н ...
  • Вечерний Ургант // Сезон 2. Выпуск 62 (ТВ-шоу, 19.12.2012) [SATRip, Не треб ...
  • Вечерний Ургант // Сезон 2. Выпуск 63 (ТВ-шоу, 20.12.2012) [SATRip, Не треб ...
  • Кейси Джонс / Casey Jones (Иларион Бэнкс, Короткометражка, фэнтези, боевик, ...
  • Вечерний Ургант // Сезон 2. Выпуск 64 (ТВ-шоу, 21.12.2012) [SATRip, Не треб ...
  • Вечерний Ургант // Сезон 2. Выпуск 66 (ТВ-шоу, 25.12.2012) [SATRip, Не треб ...
  • Покорить высоту / Take It to the Limit (Сэм Кит / Sam Kieth, семейный, 2000 ...
  • Светлячок. Воссоединение Коричневых плащей к 10 годовщине / Firefly 10th An ...
  • Синбад (Синдбад) / Sinbad // Сезон 1, эпизоды с 1 по 6 (из 12) (приключения ...
  • Детский душ / Baby Shower (Pablo Illanes, Ужасы, 2011) [DVDRip, Любительски ...
  • Синдбад: Легенда семи морей / Sinbad of the Seven Seas (Энцо Дж. Кастеллари ...
  • Ловцы забытых голосов / Hoshi wo Ou Kodomo (2011) [HDRip, любительский (одн ...
  • Синбад (Синдбад) / Sinbad // Сезон 1, эпизоды с 1 по 12 (из 12) (приключени ...
  • Бюро находок : Потерянный и найденный / Lost and Found (Филип Хант, коротко ...
  • Информация
    Посетители, находящиеся в группе Гости, не могут оставлять комментарии к данной публикации.