вход на сайт

Имя пользователя :
Пароль :

Восстановление пароля Регистрация
Чёрная лагуна / El Internado // Сезон 7, эпизоды с 1 по 15 (из 15) (драма, мистика, детектив, 2010) [DVDRip, Профессиональный (двухголосый, закадровый от AXN Sci-Fi Россия)+ Оригинал ES]
Рейтинг:
(голосов: 1)



[img]{THEME}/images/logopost.png[/img]



Чёрная лагуна / El Internado

Сезон 7, Эпизоды с 1 по 15 (из 15)

Год выпуска: 2010
Страна: Испания
Производство: Globo Media S.A.
Жанр: Драма, мистика, триллер, детектив

Режиссёр: Иисус Родриго, Александра Граф, Марко А. Кастильо
В ролях: Natalia Millán, Marta Torné, Cristina Marcos, Martíno Rivas, Yon Gonzalez, Raúl Fernández, Marta Hazas, Amparo Bara

Перевод: Профессиональный (двухголосый закадровый) - AXN Sci-Fi Россия + Оригинал ES
Озвучка: AXN Sci-Fi Россия
Субтитры: Нет

Описание: В школе-интернате «Черная лагуна» учатся дети самых влиятельных семей Испании. Начинается новый учебный год и в интернат приходят двое новых учеников: семнадцатилетний Маркос и его маленькая сестра Паула. Их родители пропали без вести и, хотя все считают их погибшими, дети верят в то, что они все-таки вернутся.

В этот же интернат на работу горничной устраивается девушка Мария, сбежавшая из психиатрической клиники. Она разыскивает своего сына, которого у нее похитили много лет назад. Ей стало известно, что он учится в этом интернате.

Лес, в котором расположена школа-интернат, таит в себе немало загадок: таинственным образом оттуда исчезают люди, лес населен мифическими животными, а ночью там происходят и вовсе немыслимые вещи…

Список эпизодов: ▼
Эпизод 1 Протокол (El protocolo)
Эпизод 2 Угроза (La amenaza)
Эпизод 3 Таинственный человек (El hombre misterioso)
Эпизод 4 Сокровище (El tesoro)
Эпизод 5 Центр Земли (El centro de la Tierra)
Эпизод 6 Три лепестка (Los tres pétalos)
Эпизод 7 Убийца Каролины (El asesino de Carolina)
Эпизод 8 Последнее желание (El último deseo)
Эпизод 9 Начало конца (El Principio del fin)
Эпизод 10 Последняя доза (La última dosis)
Эпизод 11 Последние воспоминания (Los últimos recuerdos)
Эпизод 12 Пока смерть не разлучит их (Hasta que la muerte los separe)
Эпизод 13 Последний вдох (El último aliento)
Эпизод 14 Свет (La luz)
Эпизод 15 Конец (El fin)



Все раздачи сериала

СЭМПЛ

Качество: DVDRip
Продолжительность: по ~ 01:15:00

Формат: AVI
Видео кодек: XviD
Аудио кодек:MP3, AC3
Свойства видео: MPEG4, XviD, 720x400 (16/9), 25.000 fps, 1 495 Kbps (0.208 bit/pixel)
Свойства аудио: MP3, 48.0 KHz, 2 ch, 192 Kbps, CBR [Rus]
Свойства аудио 2: AC-3, 48.0 KHz, 2 ch, 192 Kbps, CBR [Esp]
"MI" ▼General
Complete name : I:ЗАКАЧКИEl.Internado.s07.DVDRip.Rus.Esp.Gravi-TVEl.Internado.s07e01.DVDRip.Rus.Esp.Gravi-TV.avi
Format : AVI
Format/Info : Audio Video Interleave
File size : 1.11 GiB
Duration : 1h 24mn
Overall bit rate : 1 893 Kbps
Writing application : VirtualDubMod 1.5.10.2 (build 2540/release)
Writing library : VirtualDubMod build 2540/release

Video
ID : 0
Format : MPEG-4 Visual
Format profile : Advanced [email protected]
Format settings, BVOP : 2
Format settings, QPel : No
Format settings, GMC : No warppoints
Format settings, Matrix : Default (H.263)
Muxing mode : Packed bitstream
Codec ID : XVID
Codec ID/Hint : XviD
Duration : 1h 24mn
Bit rate : 1 495 Kbps
Width : 720 pixels
Height : 400 pixels
Display aspect ratio : 16:9
Frame rate : 25.000 fps
Color space : YUV
Chroma subsampling : 4:2:0
Bit depth : 8 bits
Scan type : Progressive
Compression mode : Lossy
Bits/(Pixel*Frame) : 0.208
Stream size : 901 MiB (79%)
Writing library : XviD 1.2.1 (UTC 2008-12-04)

Audio #1
ID : 1
Format : MPEG Audio
Format version : Version 1
Format profile : Layer 3
Mode : Joint stereo
Codec ID : 55
Codec ID/Hint : MP3
Duration : 1h 24mn
Bit rate mode : Constant
Bit rate : 192 Kbps
Channel(s) : 2 channels
Sampling rate : 48.0 KHz
Compression mode : Lossy
Stream size : 116 MiB (10%)
Alignment : Aligned on interleaves
Interleave, duration : 40 ms (1.00 video frame)
Interleave, preload duration : 504 ms

Audio #2
ID : 2
Format : AC-3
Format/Info : Audio Coding 3
Mode extension : CM (complete main)
Codec ID : 2000
0b0aecfd8d8aaa295956e38160bcca47931dd4ab Чёрная лагуна / El Internado // Сезон 7, эпизоды с 1 по 15 (из 15) (драма, мистика, детектив, 2010) [DVDRip, Профессиональный (двухголосый, закадровый от AXN Sci-Fi Россия)+ Оригинал ES] Чёрная лагуна / El Internado // Сезон 7, эпизоды с 1 по 15 (из 15) (драма, мистика, детектив, 2010) [DVDRip, Профессиональный (двухголосый, закадровый от AXN Sci-Fi Россия)+ Оригинал ES] " />

Аплоадер: Админ, дата: 12-04-2012, 00:07, торрент скачан: 359 раз

Понравилась раздача? Посмотрите эти:
  • Вирус / Flu (Ким Сон Су, Драма, 2013) [HDTVRip, Любительский (двухголосый з ...
  • Мужество / Wymyk (Грег Зглински, драма, 2011) [DVDRip, Любительский (одного ...
  • Альбатрос / Albatross (Найал МакКормик, Драма, 2011) [DVDRip, Профессиональ ...
  • Слепой поворот / Blind Turn (Роберт Орр, Триллер, драма, детектив, 2012) [W ...
  • Чемпионат Италии 2012-13 / 36-й тур / Рома — Кьево / НТВ+ [07.05.2013, SD, ...
  • Псы войны / The Dogs of War (Джон Ирвин, боевик, драма, приключения, военны ...
  • Молодежный чемпионат мира 2012 (U-20). Четвертьфинал: Россия - Чехия [02.01 ...
  • Чемпионат Испании 2011-12 / 36-й тур / Реал Мадрид - Севилья / НТВ+ [Футбол ...
  • Чемпионат Европы 2012 / Группа C / 1-й тур / Ирландия — Хорватия / ТРК Футб ...
  • Чемпионат Европы 2012 / Группа D / 1-й тур / Украина - Швеция / Спорт 1 [11 ...
  • Олимпиада 2012 / Футбол / Мужчины / Группа A / 3-й тур / Великобритания - У ...
  • Чёрная лагуна / El Internado // Сезон 5, эпизоды с 1 по 9 (из 9); Сезон 6, ...
  • Рухнувшие небеса / Falling Skies // Cезон 1, эпизоды с 1 по 10 (из 10) (фа ...
  • Черная лагуна / El Internado // Сезон 1, эпизоды с 1 по 6 (из 6) ( Марко А. ...
  • Черная лагуна / El Internado // Сезон 2, эпизоды с 1 по 8 (из 8) ( Марко А. ...
  • Чёрная лагуна / El Internado // Сезон 3, эпизоды с 1 по 9 (из 9) ( Марко А. ...
  • Черная лагуна / El Internado // Сезон 7, Эпизоды с 1 по 15 (из 15) (Иисус Р ...
  • Чёрная лагуна / El Internado // Сезон 4, эпизоды с 1 по 9 (из 11) (Марко А. ...
  • Чёрная лагуна / El Internado // Сезон 5, эпизоды с 1 по 9 (из 9) (Марко А. ...
  • Чёрная лагуна / El Internado // Сезон 6, эпизоды с 1 по 13 (из 13) (Марко А ...
  • Чёрная лагуна / El Internado // Сезон 6, эпизоды с 1 по 13 (из 13) (драма, ...
  • Расследования Мердока / The Murdoch Mysteries // Сезон 3, эпизоды с 1 по 13 ...
  • Путешествие Чарли / Next Stop for Charlie // Сезон 1, эпизоды с 1 по 10 (и ...
  • Олимпиада 2012 / Женщины, Мужчины / Плавание / Квалификация / НТВ+ [30.07.2 ...
  • Ничего, кроме правды / Nothing But the Truth (Род Лури, триллер, драма, 200 ...
  • Информация
    Посетители, находящиеся в группе Гости, не могут оставлять комментарии к данной публикации.