вход на сайт

Имя пользователя :
Пароль :

Восстановление пароля Регистрация
Игра престолов / Game of Thrones // Сезон 2, эпизоды с 1 по 10 (из 10) (фэнтези, драма, приключения, 2012) [BDRip, Профессиональный (многоголосый, закадровый от LostFilm)]
Рейтинг:
(голосов: 1)



[img]{THEME}/images/logopost.png[/img]



Игра престолов / Game of Thrones
«War is Coming / Грядёт Война»

Сезон 2, Эпизоды с 1 по 10 (из 10)

Год выпуска: 2012
Страна: США, Великобритания
Производство: Bighead Littlehead, Created By, Generator Entertainment, Home Box Office (HBO), Television 360
Жанр: фэнтези, драма, приключения

Режиссёр: Алан Тейлор, Даниэль Минахан, Дэвид Наттер
В ролях: Лена Хиди, Питер Динклэйдж, Мишель Фэйрли, Эмилия Кларк, Кит Харингтон, Николай Костер-Валдау, Иэн Глен, Эйден Гиллен, Элфи Оуэн-Аллен, Мэйси Уильямс, Софи Тернер, Джек Глисон, Исаак Хемпстид-Райт, Ричард Мэдден, Джером Флинн, Конлет Хилл, Дональд Самптер, Рори МакКанн, Амрита Ачария, Чарльз Дэнс, Джон Брэдли, Кристиан Нэйрн, Сибель Кекилли, Джеймс Космо, Стивен Диллэйн, Гетин Энтони, Гвендолин Кристи, Натали Дормер, Уна Чаплин, Нонсо Анози, Роуз Лесли, Оуэн Тил, Уилко Джонсон, Питер Вон

Перевод: Профессиональный (многоголосый, закадровый) - LostFilm
Озвучка: Студия "Kravec"
Субтитры: отсутствуют

Описание: К концу подходит время благоденствия, и лето, длившееся несколько десятилетий, угасает. Вокруг средоточия власти Семи королевств, Железного трона, зреет заговор, и в это непростое время король решает искать поддержки у друга юности Эддарда Старка. В мире, где все — от короля до наемника — рвутся к власти, плетут интриги и готовы вонзить нож в спину, есть место и благородству, состраданию и любви. Между тем, никто не замечает пробуждение тьмы из легенд далеко на Севере — и лишь Стена защищает живых к югу от нее.

Список эпизодов: ▼Эпизод 1. Север помнит / The North Remembers
Эпизод 2. Ночные земли / The Night Lands
Эпизод 3. То, что мертво, умереть не может / What Is Dead May Never Die
Эпизод 4. Сад костей / Garden of Bones
Эпизод 5. Призрак Харренхола / The Ghost of Harrenhal
Эпизод 6. Боги старые и новые / The Old Gods and the New
Эпизод 7. Человек без чести / A Man Without Honor
Эпизод 8. Принц Винтерфелла / The Prince of Winterfell
Эпизод 9. Черноводная / Blackwater
Эпизод 10. Валар Моргулис / Valar Morghulis


Качество: BDRip
Продолжительность: по ~00:56:00

Формат: AVI
Видео кодек: XviD build 65
Аудио кодек: AC3
Свойства видео: 704x400 (16:9), 23.976 fps, XviD build 65, ~2001 kbps avg, 0.296 bit/pixel
Свойства аудио: 48 kHz, AC3 Dolby Digital, 3/2 (L,C,R,l,r) + LFE ch, 384.00 kbps avg | Профессиональный (многоголосый, закадровый) - LostFilm
MediaInfo ▼Общее
Полное имя : D:Игра престолов 2 сезонIgra.Prestolov.s02.e01.BDRip.Rus.Eng.avi
Формат : AVI
Формат/Информация : Audio Video Interleave
Размер файла : 902 Мбайт
Продолжительность : 52 м.
Общий поток : 2394 Кбит/сек
Программа кодирования : VirtualDubModRus 1.5.10.2 (build 2542/release)
Библиотека кодирования : VirtualDubMod build 2542/release

Видео
Идентификатор : 0
Формат : MPEG-4 Visual
Профиль формата : Advanced [email protected]
Параметр BVOP формата : 1
Параметр QPel формата : Нет
Параметр GMC формата : Без точки перехода
Параметр матрицы формата : Default (MPEG)
Идентификатор кодека : XVID
Идентификатор кодека/Подсказка : XviD
Продолжительность : 52 м.
Битрейт : 2001 Кбит/сек
Ширина : 704 пикс.
Высота : 400 пикс.
Соотношение сторон : 16:9
Частота кадров : 23,976 кадр/сек
Цветовое пространство : YUV
Подвыборка цветности : 4:2:0
Битовая глубина : 8 бит
Тип развёртки : Прогрессивная
Метод сжатия : С потерями
Бит/(Пиксели*Кадры) : 0.296
Размер потока : 754 Мбайт (84%)
Библиотека кодирования : XviD 65

Аудио
Идентификатор : 1
Формат : AC-3
Формат/Информация : Audio Coding 3
Расширение режима : CM (complete main)
Идентификатор кодека : 2000
Продолжительность : 52 м.
Вид битрейта : Постоянный
Битрейт : 384 Кбит/сек
Каналы : 6 каналов
Расположение каналов : Front: L C R, Side: L R, LFE
Частота : 48,0 КГц
Битовая глубина : 16 бит
Метод сжатия : С потерями
Размер потока : 145 Мбайт (16%)
Выравнивание : Разделение по промежуткам
Продолжительность промежутка : 42 мс. (1,00 видеока
61b04a9112d6ebaf22a595862d61ba096d227d4cИгра престолов / Game of Thrones // Сезон 2, эпизоды с 1 по 10 (из 10) (фэнтези, драма, приключения, 2012) [BDRip, Профессиональный (многоголосый, закадровый от LostFilm)] Игра престолов / Game of Thrones // Сезон 2, эпизоды с 1 по 10 (из 10) (фэнтези, драма, приключения, 2012) [BDRip, Профессиональный (многоголосый, закадровый от LostFilm)] " />

Аплоадер: Админ, дата: 3-05-2013, 17:00, торрент скачан: 359 раз

Понравилась раздача? Посмотрите эти:
  • Игра престолов / Game of Thrones // Сезон 2, эпизоды с 1 по 10 (из 10) (фэн ...
  • Игра престолов / Game of Thrones // Cезон 3, Эпизоды с 1 по 10 (из 10) (фэн ...
  • Игра Престолов / Game of Thrones // Сезоны 1-3, (фэнтези, драма, приключен ...
  • Игра престолов / Game of Thrones // Cезон 1- 3, Эпизоды с 1 по 30 (из 30) ( ...
  • Игра престолов / Game of Thrones // Сезон 3, эпизоды с 1 по 6 (из 10) (фэнт ...
  • Игра престолов / Game of Thrones // Cезон 2, эпизоды с 1 по 10 (из 10) (фэн ...
  • Игра престолов / Game of Thrones // Сезон 1, эпизоды с 1 по 10 (из 10) (фэн ...
  • Игра престолов / Game of Thrones // Cезон 2, эпизоды с 1 по 10 (из 10) (фэн ...
  • Игра престолов / Game of Thrones // Cезон 3, эпизод 1 (из 10) (Алан Тейлор, ...
  • Игра престолов / Game of Thrones // Cезон 1, Эпизоды с 1 по 10 (из 10) (Джо ...
  • Игра престолов / Game of Thrones // Сезон 1, эпизоды с 1 по 10 (из 10) ( ...
  • Игра престолов / Game of Thrones // Cезон 1, Эпизоды с 1 по 10 (из 10) (Бра ...
  • Игра престолов / Game of Thrones // Cезон 1, Эпизод с 1 по 10 (из 10) (Джор ...
  • Игра престолов / Game of Thrones // Cезон 1, Эпизод с 1 по 10 (из 10) (Джор ...
  • Игра престолов / Game of Thrones // Сезон 1, эпизоды с 1 по 10 (из 10) (фэн ...
  • Игра престолов / Game of Thrones // Сезон 1, эпизоды с 1 по 10 (из 10) (Фэн ...
  • [Тизер] Game of Thrones / Игра престолов (Исторический, драма, фэнтези, экр ...
  • Игра престолов / Game of Thrones // Сезон 1, эпизоды с 1 по 10 (из 10) (фэн ...
  • Игра престолов / Game of Thrones // Cезон 2, Эпизоды с 1 по 10 (из 10) (фэн ...
  • Игра престолов / Game of Thrones // Cезон 2, Эпизоды с 1 по 10 (из 10) (фэн ...
  • Игра престолов / Game of Thrones // Cезон 2, Эпизоды с 1 по 10 (из 10) (Фэн ...
  • Игра престолов / Game of Thrones // Cезон 2, Эпизоды с 1 по 10 (из 10) (фэн ...
  • Игра престолов / Game of Thrones // Cезон 2, Эпизоды с 1 по 10 (из 10) (фэн ...
  • Игра престолов / Game of Thrones // Cезон 2, эпизоды с 1 по 10 (из 10) (фэн ...
  • Игра престолов / Game of Thrones // Cезон 2, Эпизоды с 1 по 10 (из 10) (фэн ...
  • Информация
    Посетители, находящиеся в группе Гости, не могут оставлять комментарии к данной публикации.