вход на сайт

Имя пользователя :
Пароль :

Восстановление пароля Регистрация
Касл / Castle // Сезон 6, эпизод 1 (из ??) (драма, комедия, криминал, детектив, 2013) [HDTVRip 720p, Оригинал(английский) + Субтитры(русские)]
Рейтинг:
(голосов: 1)



[img]{THEME}/images/logopost.png[/img]



Касл / Castle
Сезон 6, Эпизод 1 (из ??)

«Валькирия» / «Valkyrie»
Год выпуска: 2013
Страна: США
Производство: ABC Studios, Beacon Pictures, Experimental Pictures
Жанр: драма, комедия, криминал, детектив

Режиссёр: Роб Боумен, Джон Терлески, Брайан Спайсер
В ролях: Натан Филлион, Стана Катич, Сьюзэн Салливан, Молли С. Куинн, Джон Уэртас, Тамала Джонс, Шеймус Девер, Пенни Джонсон, Рубен Сантьяго-Хадсон, Ари Гросс, Скотт Полин, Виктор Уэбстер, Джулиана Девер, Майкл Трукко, Майкл Дорн, Монит Мазур и др.

Перевод: Оригинал(английский)
Субтитры: Русские (вшитые, отключаемые)
Описание: Знакомьтесь, Ричард Касл - успешный писатель детективного жанра, который в последней книге убил своего главного героя. Но кажется, что одному из почитателей его таланта книги понравились слегка чересчур - в городе появляется подражатель, совершающий преступления, с убийственной точностью копируя способы, которыми Касл убивал в своих произведениях. И вот наш изнывающий от скуки писатель был вызван в отдел убийств Нью-йоркской полиции, чтобы помочь найти убийцу.


Качество: HDTVRip 720p
Продолжительность: 00:42:47

Формат: MKV
Видео кодек: H.264
Аудио кодек: AC3
Свойства видео: 1280x720 (16:9), 23.976 fps, AVC([email protected]) ~2465 kbps avg, 0.108 bit/pixel
Свойства аудио: 48 kHz, AC3 Dolby Digital, 6 ch, ~448.00 kbps avg
MediaInfo: ▼General
Unique ID : 196597019413331892026730834881736594521 (0x93E7356B2BA3591280EF169CD407D459)
Complete name : Castle s06e01 HDTV 720p RUS SUB.mkv
Format : Matroska
Format version : Version 4 / Version 2
File size : 909 MiB
Duration : 42mn 47s
Overall bit rate : 2 972 Kbps
Movie name : Castle s06e01 HDTV 720p
Encoded date : UTC 2013-09-24 04:19:39
Writing application : mkvmerge v6.1.0 (Old Devil) built on Apr 13 2013 19:41:27
Writing library : libebml v1.3.0 + libmatroska v1.4.0

Video
ID : 1
Format : AVC
Format/Info : Advanced Video Codec
Format profile : [email protected]
Format settings, CABAC : Yes
Format settings, ReFrames : 9 frames
Codec ID : V_MPEG4/ISO/AVC
Duration : 42mn 47s
Bit rate : 2 465 Kbps
Width : 1 280 pixels
Height : 720 pixels
Display aspect ratio : 16:9
Frame rate mode : Constant
Frame rate : 23.976 fps
Color space : YUV
Chroma subsampling : 4:2:0
Bit depth : 8 bits
Scan type : Progressive
Bits/(Pixel*Frame) : 0.112
Stream size : 754 MiB (83%)
Title : Castle s06e01 HDTV 720p
Writing library : x264 core 138 r2358 9e941d1
Encoding settings : cabac=1 / ref=9 / deblock=1:-2:-2 / analyse=0x3:0x133 / me=umh / subme=10 / psy=1 / psy_rd=1.00:0.00 / mixed_ref=1 / me_range=32 / chroma_me=1 / trellis=2 / 8x8dct=1 / cqm=0 / deadzone=21,11 / fast_pskip=0 / chroma_qp_offset=-2 / threads=16 / lookahead_threads=1 / sliced_threads=0 / nr=0 / decimate=1 / interlaced=0 / bluray_compat=0 / constrained_intra=0 / bframes=5 / b_pyramid=2 / b_adapt=2 / b_bias=0 / direct=3 / weightb=1 / open_gop=0 / weightp=2 / keyint=250 / keyint_min=23 / scenecut=40 / intra_refresh=0 / rc_lookahead=60 / rc=crf / mbtree=1 / crf=18.0 / qcomp=0.60 / qpmin=0 / qpmax=69 / qpstep=4 / ip_ratio=1.40 / aq=1:1.00
Language : English
Default : No
Forced : No
Matrix coefficients : BT.709

Audio
ID : 2
Format : AC-3
Format/Info : Audio Coding 3
Mode extension : CM (complete main)
Format settings, Endianness : Big
Codec ID : A_AC3
Duration : 42mn 47s
Bit rate mode : Constant
Bit rate : 448 Kbps
Channel(s) : 6 channels
Channel positions : Front: L C R, Side: L R, LFE
Sampling rate : 48.0 KHz
Bit depth : 16 bits
Compression mode : Lossy
Stream size : 137 MiB (15%)
Title : Castle s06e01 HDTV 720p ENG
Language : English
Default : Yes
Forced : No

Text
ID : 3
Format : UTF-8
Codec ID : S_TEXT/UTF8
Codec ID/Info : UTF-8 Plain Text
Title : Castle s06e01 HDTV 720p RUS SUB
Language : Russian
Default : Yes
Forced : No


8773b8bea9ef8ecbea617646d5c124bcf4fa211bКасл / Castle // Сезон 6, эпизод 1 (из ??) (драма, комедия, криминал, детектив, 2013) [HDTVRip 720p, Оригинал(английский) + Субтитры(русские)] Касл / Castle // Сезон 6, эпизод 1 (из ??) (драма, комедия, криминал, детектив, 2013) [HDTVRip 720p, Оригинал(английский) + Субтитры(русские)] " />

Аплоадер: Админ, дата: 24-09-2013, 10:28, торрент скачан: 359 раз

Понравилась раздача? Посмотрите эти:
  • Сезон убийц / Killing Season (Марк Стивен Джонсон, триллер, драма, боевик, ...
  • Погнали! / Getaway (Кортни Соломон, боевик, криминал, 2013) [BDRip 720p, Пр ...
  • Касл / Castle // Сезон 6, эпизоды с 1 по 10 (из 24) (драма, комедия, кримин ...
  • Касл / Castle // Сезон 6, эпизоды с 1 по 8 (из 24) (драма, комедия, кримина ...
  • Касл / Castle // Сезон 6, эпизоды с 1 по 7 (из 24) (драма, комедия, кримина ...
  • Касл / Castle // Сезон 6, эпизод 1 (из ??) (драма, комедия, криминал, дете ...
  • Посылка / The Package (Джесси Джонсон, боевик, 2013) [BDRip 720p, Профессио ...
  • Касл / Castle // Сезон 6, эпизоды с 1 по 5 (из 24) (драма, комедия, кримина ...
  • Чемпионат Испании 2013-14 / 2-й тур / Preview / НТВ+ [23.08.2013, 720p, x2 ...
  • Чемпионат Германии 2013-14 / 3-й тур / Preview / НТВ+ [23.08.2013, 720p, x2 ...
  • Чемпионат Италии 2013-14 / 1-й тур / Preview / НТВ+ [23.08.2013, 720p, x264 ...
  • 42 / 42 (Брайан Хелгеленд, Драма, биография, спорт, 2013) [BDRip 720p, Проф ...
  • UFC 162: Silva vs. Weidman - Prelims [2013, MMA, HDTVRip 720p]
  • Кубок Англии 2012-2013 / Превью финала / Спорт 1 [Футбол, 09.05.2013, 720p, ...
  • UFC The Ultimate 100 Knockouts - PPV [MMA,2013, HDTVRip 720p]
  • Касл / Castle // Cезон 1, эпизоды с 1 по 10 (из 10) (Роб Боумен, Джон Терле ...
  • Суррогат / The Sessions (Бен Луин, драма, 2012) [BDRip 720p, Профессиональн ...
  • [ENG] Крутые кексы / High School (Джон Сталберг, комедия, 2010) [BDRip 720p ...
  • Ворон / The Raven (Джеймс МакТиг, Триллер, детектив, 2012) [BDRip 720p, Дуб ...
  • Слова / The Words [EXTENDED] (Ли Стернтал, Драма, мелодрама, 2012) [BDRip 7 ...
  • Чемпионат Европы 2012 / 1/2 финала / Германия - Италия / Спорт 1 HD [Футбо ...
  • Блудливая Калифорния / Californication // Сезон 5, Эпизоды с 1 по 12 (из 12 ...
  • Jon Anderson / The Contemporary Youth Orchestra [2010, Art-Rock, Contempora ...
  • Mylene Farmer / Du Temps [2011, Pop, HDTVRip]
  • Mylene Farmer / Bleu Noir [2011, Pop, HDTVRip]
  • Информация
    Посетители, находящиеся в группе Гости, не могут оставлять комментарии к данной публикации.